Welcome Guest ( Log In | Register )

> Releases Upload / Добавление релизов

Добавить релиз тут / Click here to add release
Рекомендованные обменники / Recommended file shares

 
Reply to this topicStart new topic
> Krvl - Zoete Ellende [single] (2021), Post-Black Metal
post Jul 20 2021, 13:03:33
Post #1

KPN 666
**************
Group: Металариец
Posts: 2,565
Releases: 1167
From: Тегеран
On Forums: 12 years 3 weeks
Thanks: 17532 time(s)
Iran


(IMG:http://metalarea.org/images/audiocovers/2021_Jul/acov_tid353600_thumb.jpg)

*Artist: Krvl
*Album: Zoete Ellende [single]
*Year: 2021
*Genre: Post-Black Metal
*Country: Belgium (IMG:http://metalarea.org/forum/style_images/flags/Belgium.png)
*Format: mp3@CBR320kbps
*Size: 14MB

Tracklist:
01. Zoete Ellende 5:53
******************************
Total playing time: 5:53



Technical info
(IMG:http://metalarea.org/images/spectrogram/2021_Jul/ba78e4e164fdc46b5ba23b07b7282340.png)
Input File: 01. Zoete Ellende.mp3
Channels : 2
Sample Rate : 44100
Precision : 16-bit
Duration : 00:00:00.35 = 15523 samples = 26.3997 CDDA sectors
File Size : 14.5M
Bit Rate : 330M
Sample Encoding: MPEG audio (layer I, II or III)
Comments :
Title=Zoete Ellende
Artist=KrvL
Album=Zoete Ellende
Tracknumber=1
Year=2021-01-26
Genre=Alternative & Rock
Discnumber=1



Register


Go to the top of the page
  Insert nick Quick quote
+Quote Post

Reply to this topicStart new topic
2 User(s) are reading this topic (2 Guests and 0 Anonymous Users)
0 Members:

 



- Lo-Fi Version Support form
Copyrights and abuse reports form
Time is now: 27th July 2021 - 19:52:20