Welcome Guest ( Log In | Register )

> Releases Upload / Добавление релизов

Добавить релиз тут / Click here to add release
Рекомендованные обменники / Recommended file shares

> In Autumnus - Repetitions (2021), Atmospheric Post-Black Metal (D11)
post Jul 20 2021, 13:55:16
Post #1

Serial Uploader
Group Icon
Group: V.I.P
Posts: 37,608
Releases: 35780
From: Lithuania
On Forums: 13 years 1 month
Thanks: 433174 time(s)
Lithuania


(IMG:https://metalarea.org/images/audiocovers/2021_Jul/acov_tid353602_thumb.jpg)

*Artist: In Autumnus
*Album: Repetitions
*Year: 2021
*Genre: Atmospheric Post-Black Metal
*Country: United Kingdom (IMG:https://metalarea.org/forum/style_images/flags/United%20Kingdom.png)
*Format: mp3@CBR320kbps
*Size: 130MB

Tracklist:
01. Balthazars 02:20
02. Delirium 17:07
03. Waster 01:56
04. Council Pissings 15:40
05. Dopamine Funeral 19:20
******************************
Total playing time: 56:23



(IMG:https://metalarea.org/images/youtube.png)

Technical info
(IMG:https://metalarea.org/images/spectrogram/2021_Jul/3b1fb5e273f6b9240811a908c5bd5e61.png)
Input File: 03. Waster.mp3
Channels : 2
Sample Rate : 44100
Precision : 16-bit
Duration : 00:01:56.17 = 5123185 samples = 8712.9 CDDA sectors
File Size : 4.85M
Bit Rate : 334k
Sample Encoding: MPEG audio (layer I, II or III)
Comments :
Title=Waster
Artist=In Autumnus
Album=Repetitions
Tracknumber=3
Year=2021



Register


Go to the top of the page
  Insert nick Quick quote
+Quote Post
 
Start new topic
Replies (1 - 1)
post Jul 21 2021, 10:57:01
Post #2

gazing the void
**
Group: Завсегдатай
Posts: 166
Releases: 2
On Forums: 4 years 2 months
Thanks: 164 time(s)
Zimbabwe


(IMG:style_emoticons/default/normal_Homerdisgust3s.png)
Go to the top of the page
  Insert nick Quick quote
+Quote Post

Reply to this topicStart new topic
2 User(s) are reading this topic (2 Guests and 0 Anonymous Users)
0 Members:

 



- Lo-Fi Version Support form
Copyrights and abuse reports form
Time is now: 27th July 2021 - 20:17:38