Welcome Guest ( Log In | Register )

> Releases Upload / Добавление релизов

Добавить релиз тут / Click here to add release
Рекомендованные обменники / Recommended file shares

 
Reply to this topicStart new topic
> The Last King - The New Age (2021), Deathcore (D4)
post Jul 20 2021, 14:09:27
Post #1

Serial Uploader
Group Icon
Group: V.I.P
Posts: 37,608
Releases: 35780
From: Lithuania
On Forums: 13 years 1 month
Thanks: 433174 time(s)
Lithuania


(IMG:https://metalarea.org/images/audiocovers/2021_Jul/acov_tid353603_thumb.jpg)

*Artist: The Last King
*Album: The New Age
*Year: 2021
*Genre: Deathcore
*Country: United States (IMG:https://metalarea.org/forum/style_images/flags/United%20States.png)
*Format: mp3@CBR320kbps
*Size: 95MB

Tracklist:
01. Conducting Retribution 03:11
02. Beyond Hate 04:12
03. Gomorrah 04:00
04. The New Age 04:29
05. Aberration 04:39
06. Sacrosanct 04:04
07. The Worst of It 04:13
08. Nescience 04:27
09. Resurrection 04:30
******************************
Total playing time: 37:45



(IMG:https://metalarea.org/images/youtube.png)

Technical info
(IMG:https://metalarea.org/images/spectrogram/2021_Jul/e212cb311db465b1d2468970c9f7a9fc.png)
Input File: 02. Beyond Hate.mp3
Channels : 2
Sample Rate : 44100
Precision : 16-bit
Duration : 00:04:12.33 = 11127753 samples = 18924.8 CDDA sectors
File Size : 11.1M
Bit Rate : 351k
Sample Encoding: MPEG audio (layer I, II or III)
Comments :
Title=Beyond Hate
Artist=The Last King
Album=The New Age
Tracknumber=2/9
Year=2021
Genre=Metal
Discnumber=1/1



Register


Go to the top of the page
  Insert nick Quick quote
+Quote Post

Reply to this topicStart new topic
2 User(s) are reading this topic (2 Guests and 0 Anonymous Users)
0 Members:

 



- Lo-Fi Version Support form
Copyrights and abuse reports form
Time is now: 27th July 2021 - 20:30:52