Welcome Guest ( Log In | Register )

> Releases Upload / Добавление релизов

Добавить релиз тут / Click here to add release
Рекомендованные обменники / Recommended file shares

> Invillith - Druid (2021), Atmospheric/Post-Black Metal
post Jul 20 2021, 14:31:14
Post #1

Правь статус, ####!111
**************
Group: Металариец
Posts: 26,672
Releases: 19234
From: Г.Харьков
On Forums: 9 years 2 months
Thanks: 384908 time(s)
Unknown


(IMG:https://metalarea.org/images/audiocovers/2021_Jul/acov_tid353605_thumb.jpg)

*Artist: Invillith
*Album: Druid
*Year: 2021
*Genre: Atmospheric/Post-Black Metal
*Country: United States (IMG:https://metalarea.org/forum/style_images/flags/United%20States.png)
*Format: mp3@CBR320kbps
*Size: 179MB

Tracklist:
1. Arcane Renaissance 12:49
2. Celestial Healing 12:51
3. Wanderlust 06:01
4. Escape to the Emerald 13:20
5. The Cervine Altar 05:38
6. Druid 13:19
7. Nocturnity 14:47
******************************
Total playing time: 1:18:45



Extended info
Somniare Everything


Technical info
(IMG:https://metalarea.org/images/spectrogram/2021_Jul/916fa4ad830374dd814713ddf26e15f0.png)
Input File: 07 - Nocturnity.mp3
Channels : 2
Sample Rate : 44100
Precision : 16-bit
Duration : 00:14:47.93 = 39157625 samples = 66594.6 CDDA sectors
File Size : 35.5M
Bit Rate : 320k
Sample Encoding: MPEG audio (layer I, II or III)
Comments :
Title=Nocturnity
Artist=Invillith
Album=Druid
Tracknumber=7
Year=2021



Register


Go to the top of the page
  Insert nick Quick quote
+Quote Post
 
Start new topic
Replies (1 - 1)
post Jul 21 2021, 10:26:03
Post #2

Group: Дух
Posts: 1
Releases: 0
On Forums: 3 years 11 months
Thanks: 0 time(s)
Unknown


anyone has FLAC link for this album?
Go to the top of the page
  Insert nick Quick quote
+Quote Post

Reply to this topicStart new topic
1 User(s) are reading this topic (1 Guests and 0 Anonymous Users)
0 Members:

 



- Lo-Fi Version Support form
Copyrights and abuse reports form
Time is now: 27th July 2021 - 19:17:13