Welcome Guest ( Log In | Register )

> Releases Upload / Добавление релизов

Добавить релиз тут / Click here to add release
Рекомендованные обменники / Recommended file shares

 
Reply to this topicStart new topic
> Cimetière & Cloaque - Cimetière/Cloaque [split] (2021), Raw Black Metal | Raw Black Metal (D7)
post Jul 20 2021, 14:40:14
Post #1

Правь статус, ####!616
**************
Group: Металариец
Posts: 6,614
Releases: 5083
From: 55°35’N 38°08’E
On Forums: 13 years 2 weeks
Thanks: 93555 time(s)
Unknown


(IMG:https://metalarea.org/images/audiocovers/2021_Jul/acov_tid353606_thumb.jpg)

*Artist: Cimetière & Cloaque
*Album: Cimetière/Cloaque [split]
*Year: 2021
*Genre: Raw Black Metal | Raw Black Metal
*Country: Canada (IMG:https://metalarea.org/forum/style_images/flags/Canada.png) | Canada (IMG:https://metalarea.org/forum/style_images/flags/Canada.png)
*Format: mp3@CBR320kbps
*Size: 51MB

Tracklist:
Cimetière:
1.Par les Flammes 03:23
2.Précipice 03:19
3.Recueils Cadavéreux 02:59

Cloaque:
4.Verbe de Sang 05:04
5.Soliloque Mortuaire 02:04
6.Cloaque Blasphématoire 06:05
******************************
Total playing time: 22:54



Technical info
(IMG:https://metalarea.org/images/spectrogram/2021_Jul/8e7738e197307631902b55f9fdf72e9c.png)
Input File: 01 Cimetière - Par les Flammes.mp3
Channels : 2
Sample Rate : 44100
Precision : 16-bit
Duration : 00:03:23.69 = 8982773 samples = 15276.8 CDDA sectors
File Size : 8.26M
Bit Rate : 324k
Sample Encoding: MPEG audio (layer I, II or III)
Comments :
Title=Par les Flammes
Artist=CIMETIÈRE
Album=Split CIMETIÈRE​/​CLOAQUE
Tracknumber=1
Year=2021
Genre=Black Metal



Register


Go to the top of the page
  Insert nick Quick quote
+Quote Post

Reply to this topicStart new topic
1 User(s) are reading this topic (1 Guests and 0 Anonymous Users)
0 Members:

 



- Lo-Fi Version Support form
Copyrights and abuse reports form
Time is now: 27th July 2021 - 19:33:58