Welcome Guest ( Log In | Register )

> Releases Upload / Добавление релизов

Добавить релиз тут / Click here to add release
Рекомендованные обменники / Recommended file shares

> Vistery - Doomfall (2021), Death Metal
post Jul 20 2021, 14:47:18
Post #1

Правь статус, ####!111
**************
Group: Металариец
Posts: 26,672
Releases: 19234
From: Г.Харьков
On Forums: 9 years 2 months
Thanks: 384908 time(s)
Unknown


(IMG:https://metalarea.org/images/audiocovers/2021_Jul/acov_tid353607_thumb.jpg)

*Artist: Vistery
*Album: Doomfall
*Year: 2021
*Genre: Death Metal
*Country: Belarus (IMG:https://metalarea.org/forum/style_images/flags/Belarus.png)
*Format: mp3@CBR320kbps
*Size: 96MB

Tracklist:
1. Fatalism
2. Possessed
3. Ossuary
4. Undead
5. Dominator
6. Soul Separator
7. Desolation
8. Mind Rot
9. DeathInfection
10. Payday
11. Echoes of Decay
******************************
Total playing time: 41:09

Preview 1



Extended info
Alexander Volvachev Bass
Egor Volkov Drums (2011-?, 2019-present)
Aleksey "Wicked" Guitars (2011-present), Vocals (2011)
See also: ex-Evil Unleashed
Ivan "Paranoid" Vocals (2011-present)



Technical info
(IMG:https://metalarea.org/images/spectrogram/2021_Jul/6863ea3af0de4740c29288b93b8e1d07.png)
Input File: 07 - Desolation.mp3
Channels : 2
Sample Rate : 44100
Precision : 16-bit
Duration : 00:04:36.00 = 12171600 samples = 20700 CDDA sectors
File Size : 11.3M
Bit Rate : 326k
Sample Encoding: MPEG audio (layer I, II or III)
Comments :
Title=Desolation
Artist=Vistery
Album=Doomfall
Tracknumber=7
Year=2021-07-21
Genre=Metal
Discnumber=1



Register


Go to the top of the page
  Insert nick Quick quote
+Quote Post
 
Start new topic
Replies (1 - 2)
post Jul 21 2021, 03:06:08
Post #2

Правь статус, ####!111
**************
Group: Металариец
Posts: 26,672
Releases: 19234
From: Г.Харьков
On Forums: 9 years 2 months
Thanks: 384908 time(s)
Unknown


FLAC (Tracks) 324 mb
Register


Go to the top of the page
  Insert nick Quick quote
+Quote Post
post Jul 23 2021, 12:44:26
Post #3

0%Tolerance
**********
Group: Металариец
Posts: 1,148
Releases: 0
On Forums: 8 years 10 months
Thanks: 205 time(s)
Unknown


МЬясо з бульбою. Пожрать на раз - достаточно.
Go to the top of the page
  Insert nick Quick quote
+Quote Post

Reply to this topicStart new topic
3 User(s) are reading this topic (3 Guests and 0 Anonymous Users)
0 Members:

 



- Lo-Fi Version Support form
Copyrights and abuse reports form
Time is now: 27th July 2021 - 19:04:28