Welcome Guest ( Log In | Register )

> Releases Upload / Добавление релизов

Добавить релиз тут / Click here to add release
Рекомендованные обменники / Recommended file shares

 
Reply to this topicStart new topic
> Baphomancia - Promethean Fire [demo] (2021), Black Metal
post Jul 20 2021, 14:49:50
Post #1

Правь статус, ####!616
**************
Group: Металариец
Posts: 6,614
Releases: 5083
From: 55°35’N 38°08’E
On Forums: 13 years 2 weeks
Thanks: 93557 time(s)
Unknown


(IMG:https://metalarea.org/images/audiocovers/2021_Jul/acov_tid353608_thumb.jpg)

*Artist: Baphomancia
*Album: Promethean Fire [demo]
*Year: 2021
*Genre: Black Metal
*Country: United States (IMG:https://metalarea.org/forum/style_images/flags/United%20States.png)
*Format: mp3@CBR320kbps
*Size: 46MB

Tracklist:
1. Predatory Gaze (Intro)
2. Left Hand Devotion
3. Lustful Church of Leviathan
4. Swallowed (Interlude)
5. Hands of Perdition
6. Nocturnus Infernum
7. Forever Below (Outro)
******************************
Total playing time: 19:48



Technical info
(IMG:https://metalarea.org/images/spectrogram/2021_Jul/8c0cf2d33877c52ba4f21669ae314a0f.png)
Input File: 01 Promethean Fire \'21 (Full Demo).mp3
Channels : 2
Sample Rate : 44100
Precision : 16-bit
Duration : 00:19:48.38 = 52407514 samples = 89128.4 CDDA sectors
File Size : 47.7M
Bit Rate : 321k
Sample Encoding: MPEG audio (layer I, II or III)
Comments :
Title=Promethean Fire '21 (Full Demo)
Artist=Baphomancia
Album=Promethean Fire
Tracknumber=1
Year=2021
Genre=Black Metal



Register


Go to the top of the page
  Insert nick Quick quote
+Quote Post

Reply to this topicStart new topic
1 User(s) are reading this topic (1 Guests and 0 Anonymous Users)
0 Members:

 



- Lo-Fi Version Support form
Copyrights and abuse reports form
Time is now: 27th July 2021 - 20:03:12