Welcome Guest ( Log In | Register )

> Releases Upload / Добавление релизов

Добавить релиз тут / Click here to add release
Рекомендованные обменники / Recommended file shares

 
Reply to this topicStart new topic
> Ciel Nordique - Ceux Qui Mènent, Ceux Qui Suivent [single] (2020), Black Metal
post Jul 20 2021, 15:02:58
Post #1

Правь статус, ####!616
**************
Group: Металариец
Posts: 6,614
Releases: 5083
From: 55°35’N 38°08’E
On Forums: 13 years 2 weeks
Thanks: 93557 time(s)
Unknown


(IMG:https://metalarea.org/images/audiocovers/2021_Jul/acov_tid353609_thumb.jpg)

*Artist: Ciel Nordique
*Album: Ceux Qui Mènent, Ceux Qui Suivent [single]
*Year: 2020
*Genre: Black Metal
*Country: Canada (IMG:https://metalarea.org/forum/style_images/flags/Canada.png)
*Format: mp3@CBR320kbps
*Size: 16MB

Tracklist:
1.Ceux Qui Mènent, Ceux Qui Suivent 07:08
******************************
Total playing time: 7:08




Technical info
(IMG:https://metalarea.org/images/spectrogram/2021_Jul/444e6b10bc5f18a75477aa5f4ce488ae.png)
Input File: 01 Ciel Nordique - Ceux qui mènent, ceux qui suivent.mp3
Channels : 2
Sample Rate : 44100
Precision : 16-bit
Duration : 00:07:08.10 = 18878990 samples = 32107.1 CDDA sectors
File Size : 17.2M
Bit Rate : 321k
Sample Encoding: MPEG audio (layer I, II or III)
Comments :
Title=Ceux qui mènent, ceux qui suivent
Artist=Ciel Nordique
Album=Ceux qui mènent, ceux qui suivent
Tracknumber=1
Year=2020
Genre=Black Metal



Register


Go to the top of the page
  Insert nick Quick quote
+Quote Post

Reply to this topicStart new topic
1 User(s) are reading this topic (1 Guests and 0 Anonymous Users)
0 Members:

 



- Lo-Fi Version Support form
Copyrights and abuse reports form
Time is now: 27th July 2021 - 20:16:05