Welcome Guest ( Log In | Register )

> Releases Upload / Добавление релизов

Добавить релиз тут / Click here to add release
Рекомендованные обменники / Recommended file shares

 
Reply to this topicStart new topic
> Lykhaeon - Opprobrium (2021), Death/Black Metal
post Jul 20 2021, 15:04:46
Post #1

Правь статус, ####!111
**************
Group: Металариец
Posts: 26,672
Releases: 19234
From: Г.Харьков
On Forums: 9 years 2 months
Thanks: 384908 time(s)
Unknown


(IMG:https://metalarea.org/images/audiocovers/2021_Jul/acov_tid353610_thumb.jpg)

*Artist: Lykhaeon
*Album: Opprobrium
*Year: 2021
*Genre: Death/Black Metal
*Country: Switzerland (IMG:https://metalarea.org/forum/style_images/flags/Switzerland.png)
*Format: mp3@CBR320kbps
*Size: 124MB

Tracklist:
1. Opprobrium 04:35
2. A Stain upon Celestial Rule 11:00
3. Abducting the Seed 09:05
4. Descent into Ruinous Splendor 06:28
5. Scorching the Wings of Destiny 09:05
6. The Whorish Arrogance of Immortals 11:22
7. To Salvage the Seed 02:07
******************************
Total playing time: 53:42




Extended info
Kerberos Guitars (2013-2015), Vocals (2013-present), Bass (2015-present)
See also: Arkhaaik, Dakhma, Solitudo Solemnis
Meister T. Guitars (2019-present), Vocals (2019-present)
See also: Arkhaaik, Ateiggär, Kvelgeyst, Ungfell, Wyrgher, Dakhma (live)



Technical info
(IMG:https://metalarea.org/images/spectrogram/2021_Jul/6d8753db21b173f874c5f9a6501b60b7.png)
Input File: 04 - Descent Into Ruinous Splendor.mp3
Channels : 2
Sample Rate : 44100
Precision : 16-bit
Duration : 00:06:28.00 = 17110800 samples = 29100 CDDA sectors
File Size : 15.7M
Bit Rate : 324k
Sample Encoding: MPEG audio (layer I, II or III)
Comments :
Title=Descent Into Ruinous Splendor
Artist=Lykhaeon
Album=Opprobrium
Tracknumber=4
Year=2021-07-21
Genre=Metal
Discnumber=1



Register


Go to the top of the page
  Insert nick Quick quote
+Quote Post

Reply to this topicStart new topic
1 User(s) are reading this topic (1 Guests and 0 Anonymous Users)
0 Members:

 



- Lo-Fi Version Support form
Copyrights and abuse reports form
Time is now: 27th July 2021 - 19:23:21