Welcome Guest ( Log In | Register )

 
Reply to this topicStart new topic
> Thy Heart, Thine Kingdom - In The Garden Of Somer [ep] (2021), Raw Black Metal
post Jul 20 2021, 15:31:30
Post #1

Правь статус, ####!616
**************
Group: Металариец
Posts: 6,938
Releases: 5391
From: 55°35’N 38°08’E
On Forums: 13 years 2 months
Thanks: 98756 time(s)
Unknown


(IMG:https://metalarea.org/images/audiocovers/2021_Jul/acov_tid353612_thumb.jpg)

*Artist: Thy Heart, Thine Kingdom
*Album: In The Garden Of Somer [ep]
*Year: 2021
*Genre: Raw Black Metal
*Country: United States (IMG:https://metalarea.org/forum/style_images/flags/United%20States.png) Canada (IMG:https://metalarea.org/forum/style_images/flags/Canada.png)
*Format: mp3@CBR320kbps
*Size: 42MB

Tracklist:
1.Introduction 01:20
2.Stanza I 04:00
3.Stanza II 03:45
4.Stanza III 04:04
5.Stanza IV 03:07
6.Refrain 01:20
******************************
Total playing time: 17:36



Technical info
(IMG:https://metalarea.org/images/spectrogram/2021_Jul/254a6445137389c67cdd864031898217.png)
Input File: 02 Stanza I.mp3
Channels : 2
Sample Rate : 44100
Precision : 16-bit
Duration : 00:04:01.07 = 10631363 samples = 18080.5 CDDA sectors
File Size : 9.85M
Bit Rate : 327k
Sample Encoding: MPEG audio (layer I, II or III)
Comments :
Title=Stanza I
Artist=Thy Heart, Thine Kingdom
Album=In the Garden of Somer
Tracknumber=2
Year=2021
Genre=Black Metal



Register


Go to the top of the page
  Insert nick Quick quote
+Quote Post

Reply to this topicStart new topic
1 User(s) are reading this topic (1 Guests and 0 Anonymous Users)
0 Members:

 



- Lo-Fi Version Support form
Copyrights and abuse reports form
Time is now: 20th September 2021 - 02:59:11