Welcome Guest ( Log In | Register )

> Releases Upload / Добавление релизов

Добавить релиз тут / Click here to add release
Рекомендованные обменники / Recommended file shares

> Misery Index - Coffin Up The Nails [compilation] (2021), Death Metal/Grindcore (D)
post Jul 20 2021, 15:49:41
Post #1

Маньяк
**********
Group: Металариец
Posts: 1,326
Releases: 470
On Forums: 10 years 8 months
Thanks: 10109 time(s)
Italy


(IMG:https://metalarea.org/images/audiocovers/2021_Jul/acov_tid353613_thumb.jpg)

*Artist: Misery Index
*Album: Coffin Up The Nails [compilation]
*Year: 2021
*Genre: Death Metal/Grindcore
*Country: United States (IMG:https://metalarea.org/forum/style_images/flags/United%20States.png)
*Format: mp3@CBR320kbps
*Size: 96MB

Tracklist:
1.When Glory Beckons 03:51
2.Zombie Prescription 03:16
3.Man of Your Dreams (feat. Rob Barrett) 03:41
4.I Disavow (7" version 2020 remix) 04:19
5.Wasting Away (7" version 2020 remix) 02:40
6.Primitive Future (2020 remix) 03:08
7.Siberian (2018 remix) 04:32
8.Thieves of the New World Order 02:05
9.Ghosts of Catalonia (demo version) 05:00
10.Thrown Into the Sun (demo version) 03:54
11.Traitors (demo version) 01:56
12.Conquistadores (Alternate Mix) 03:40
******************************
Total playing time: 42:02



Extended info
Coffin Up the Nails" is a 12-song collection of detritus culled from the waste bins of past recording sessions. It is comprised of covers, alternate versions, demo tracks and so on, many of which were not easily accessible or even heard before


Technical info
(IMG:https://metalarea.org/images/spectrogram/2021_Jul/8e5f50b4d4844cde4923807a81de3247.png)
Input File: 02 Zombie Prescription.mp3
Channels : 2
Sample Rate : 44100
Precision : 16-bit
Duration : 00:03:16.64 = 8671692 samples = 14747.8 CDDA sectors
File Size : 7.95M
Bit Rate : 323k
Sample Encoding: MPEG audio (layer I, II or III)
Comments :
Title=Zombie Prescription
Artist=Misery Index
Album=Coffin Up the Nails
Tracknumber=02
Year=2021
Genre=Death Metal/Grindcore



Register


Go to the top of the page
  Insert nick Quick quote
+Quote Post
 
Start new topic
Replies (1 - 7)
post Jul 21 2021, 10:05:47
Post #2

Маньяк
**********
Group: Металариец
Posts: 1,067
Releases: 1
From: APATIN, SERBIA, АПАТИН, СЕРБИЯ
On Forums: 13 years 9 months
Thanks: 2445 time(s)



Flac

Register


Go to the top of the page
  Insert nick Quick quote
+Quote Post
post Jul 21 2021, 10:41:38
Post #3

Ледоруб
**************
Group: Металариец
Posts: 28,408
Releases: 0
From: Санкт-Петербург
On Forums: 11 years 10 months
Thanks: 10255 time(s)
Russian Federation


Интересно, надо брать.
Go to the top of the page
  Insert nick Quick quote
+Quote Post
post Jul 21 2021, 13:49:11
Post #4

Шесть Литров
******
Group: Металариец
Posts: 579
Releases: 0
From: Нижний Новгород
On Forums: 15 years 3 days
Thanks: 235 time(s)
Russian Federation


Тыкнул в 8 композицию - валят как положено! :HMR Утащил расслушивать.
Go to the top of the page
  Insert nick Quick quote
+Quote Post
post Jul 21 2021, 14:21:50
Post #5

королева бала
*******
Group: Металариец
Posts: 701
Releases: 0
On Forums: 14 years 3 months
Thanks: 507 time(s)
Russian Federation


Слушал на прошлой неделе, классная компила, хоть и половина и так раньше доступна была, но круто, что всё собрали и новья докинули. Обмазался демками, инструменталками, кайф.
Go to the top of the page
  Insert nick Quick quote
+Quote Post
post Jul 21 2021, 18:09:13
Post #6

Русский
*****
Group: Металариец
Posts: 439
Releases: 0
From: Москва
On Forums: 14 years 11 months
Thanks: 180 time(s)
Russian Federation


1 трек Bolt Thrower
Go to the top of the page
  Insert nick Quick quote
+Quote Post
post Jul 22 2021, 04:33:26
Post #7

королева бала
*******
Group: Металариец
Posts: 701
Releases: 0
On Forums: 14 years 3 months
Thanks: 507 time(s)
Russian Federation


QUOTE(denver @ Jul 21 2021, 20:09:13) *
1 трек Bolt Thrower

оче-видно))

Там половина сборника ковры:
1.When Glory Beckons (Bolt Thrower cover)
2.Zombie Prescription (Snapcase cover)
3.Man of Your Dreams (M.O.D. cover)
5.Wasting Away (Nailbomb cover)
6.Primitive Future (Sepultura cover)
8.Thieves of the New World Order (Ministry cover)

Go to the top of the page
  Insert nick Quick quote
+Quote Post
post Today, 09:42:34
Post #8

0%Tolerance
**********
Group: Металариец
Posts: 1,148
Releases: 0
On Forums: 8 years 10 months
Thanks: 205 time(s)
Unknown


Жирный качЪ!
Go to the top of the page
  Insert nick Quick quote
+Quote Post

Reply to this topicStart new topic
1 User(s) are reading this topic (1 Guests and 0 Anonymous Users)
0 Members:

 



- Lo-Fi Version Support form
Copyrights and abuse reports form
Time is now: 27th July 2021 - 20:10:01