Welcome Guest ( Log In | Register )

> Releases Upload / Добавление релизов

Добавить релиз тут / Click here to add release
Рекомендованные обменники / Recommended file shares

 
Reply to this topicStart new topic
> Toorvond - Vlakten (2021), Black Metal
post Jul 20 2021, 16:21:33
Post #1

Правь статус, ####!616
**************
Group: Металариец
Posts: 6,614
Releases: 5083
From: 55°35’N 38°08’E
On Forums: 13 years 2 weeks
Thanks: 93557 time(s)
Unknown


(IMG:https://metalarea.org/images/audiocovers/2021_Jul/acov_tid353614_thumb.jpg)

*Artist: Toorvond
*Album: Vlakten
*Year: 2021
*Genre: Black Metal
*Country: Netherlands (IMG:https://metalarea.org/forum/style_images/flags/Netherlands.png)
*Format: mp3@CBR320kbps
*Size: 92MB

Tracklist:
1.Introductie - Amberblad 01:54
2.Herfsttij Treedt Aan 03:42
3.Een Strijd Der Stormen 04:10
4.De Waterwezens - Een Samenspel 01:57
5.De Eerste Kristallen 03:44
6.Ter Aarde Gekeerd 05:12
7.Eenzaam Struinen 03:33
8.Bevroren Vlaktes 04:10
9.De Laatste Storm 03:45
10.Ontsproten Struweel 03:07
11.Lentezon 03:44
12.Eindklank 00:53
******************************
Total playing time: 39:51



Technical info
(IMG:https://metalarea.org/images/spectrogram/2021_Jul/136663201220509b6e3ed7e7d4d57986.png)
Input File: 02 Herfsttij treedt aan.mp3
Channels : 2
Sample Rate : 44100
Precision : 16-bit
Duration : 00:03:42.11 = 9794963 samples = 16658.1 CDDA sectors
File Size : 8.96M
Bit Rate : 323k
Sample Encoding: MPEG audio (layer I, II or III)
Comments :
Title=Herfsttij treedt aan
Artist=Toorvond
Album=Vlakten
Tracknumber=2
Year=2021
Genre=Black Metal



Register


Go to the top of the page
  Insert nick Quick quote
+Quote Post

Reply to this topicStart new topic
1 User(s) are reading this topic (1 Guests and 0 Anonymous Users)
0 Members:

 



- Lo-Fi Version Support form
Copyrights and abuse reports form
Time is now: 27th July 2021 - 20:20:34