Welcome Guest ( Log In | Register )

> Releases Upload / Добавление релизов

Добавить релиз тут / Click here to add release
Рекомендованные обменники / Recommended file shares

> Imperator & Baalsfeuer - Schwarz Metall Division Odinwald [split] (2012), Black Metal | Black Metal (D)
post Jul 20 2021, 17:43:06
Post #1

KPN 666
**************
Group: Металариец
Posts: 2,565
Releases: 1167
From: Тегеран
On Forums: 12 years 3 weeks
Thanks: 17532 time(s)
Iran


(IMG:http://metalarea.org/images/audiocovers/2021_Jul/acov_tid353615_thumb.jpg)

*Artist: Imperator & Baalsfeuer
*Album: Schwarz Metall Division Odinwald [split]
*Year: 2012
*Genre: Black Metal | Black Metal
*Country: Germany (IMG:http://metalarea.org/forum/style_images/flags/Germany.png) | Germany (IMG:http://metalarea.org/forum/style_images/flags/Germany.png)
*Format: mp3@CBR320kbps
*Size: 57MB

Tracklist:
Imperator:
01. Gegenoffensive
02. Blut + Eisen
03. Le Diable Rouge
Baalsfeuer:
04. Knochenthron
05. Fahnenflucht
06. Endsieg
******************************
Total playing time: 24:55

Technical info
(IMG:http://metalarea.org/images/spectrogram/2021_Jul/bfa7acda81ee66d0d616f48906ca6675.png)
Input File: 04. Baalsfeuer - Knochenthron.mp3
Channels : 2
Sample Rate : 44100
Precision : 16-bit
Duration : 00:00:00.22 = 9570 samples = 16.2755 CDDA sectors
File Size : 8.82M
Bit Rate : 325M
Sample Encoding: MPEG audio (layer I, II or III)
Comments :
Title=Knochenthron
Artist=Baalsfeuer
Album=Schwarz Metall Division Odinwald
Tracknumber=4
Year=2012-03-12
Genre=Rock & Metal
Discnumber=1



Register


Go to the top of the page
  Insert nick Quick quote
+Quote Post
 
Start new topic
Replies (1 - 1)
post Jul 21 2021, 06:39:28
Post #2

Четыре Литра
****
Group: Металариец
Posts: 380
Releases: 213
On Forums: 8 years 10 months
Thanks: 6133 time(s)
Unknown


Папка в архиве даже 2012, а не 2021.
Go to the top of the page
  Insert nick Quick quote
+Quote Post

Reply to this topicStart new topic
1 User(s) are reading this topic (1 Guests and 0 Anonymous Users)
0 Members:

 



- Lo-Fi Version Support form
Copyrights and abuse reports form
Time is now: 27th July 2021 - 20:33:48