Welcome Guest ( Log In | Register )

> Releases Upload / Добавление релизов

Добавить релиз тут / Click here to add release
Рекомендованные обменники / Recommended file shares

 
Reply to this topicStart new topic
> Bletsian - Phosfyriun (2021), Black/Death Metal
post Jul 20 2021, 17:44:05
Post #1

Правь статус, ####!111
**************
Group: Металариец
Posts: 26,673
Releases: 19234
From: Г.Харьков
On Forums: 9 years 2 months
Thanks: 384919 time(s)
Unknown


(IMG:https://metalarea.org/images/audiocovers/2021_Jul/acov_tid353616_thumb.jpg)

*Artist: Bletsian
*Album: Phosfyriun
*Year: 2021
*Genre: Black/Death Metal
*Country: Australia (IMG:https://metalarea.org/forum/style_images/flags/Australia.png)
*Format: mp3@CBR320kbps
*Size: 89MB

Tracklist:
01. Glory Be unto the Devil 03:50
02. Consecrated by Blood 03:35
03. Blood Sacrifice 02:58
04. Blackening the Sacred Blood 03:50
05. War Grave Desecration 03:19
06. Nigra Solve Et Coagula 04:19
07. Phosfyriun 03:40
08. Transubstantiation 04:35
09. Divinity of the Blood 04:12
10. Deification of the Devil 03:44
******************************
Total playing time: 38:02




Extended info
Unbeliever Vocals, Guitas, Bass
See also: Decrepit Soul, Sanguinary Misanthropia


Technical info
(IMG:https://metalarea.org/images/spectrogram/2021_Jul/a188294d34c1d6d33aca4f36ef4ac934.png)
Input File: 08 - Transubstantiation.mp3
Channels : 2
Sample Rate : 44100
Precision : 16-bit
Duration : 00:04:34.00 = 12083400 samples = 20550 CDDA sectors
File Size : 11.2M
Bit Rate : 328k
Sample Encoding: MPEG audio (layer I, II or III)
Comments :
Title=Transubstantiation
Artist=Bletsian
Album=Phosfyriun
Tracknumber=8
Year=2021-07-21
Genre=Rock/Metal
Discnumber=1



Register


Go to the top of the page
  Insert nick Quick quote
+Quote Post

Reply to this topicStart new topic
2 User(s) are reading this topic (2 Guests and 0 Anonymous Users)
0 Members:

 



- Lo-Fi Version Support form
Copyrights and abuse reports form
Time is now: 27th July 2021 - 20:13:01