Welcome Guest ( Log In | Register )

> Releases Upload / Добавление релизов

Добавить релиз тут / Click here to add release
Рекомендованные обменники / Recommended file shares

 
Reply to this topicStart new topic
> Pénombre - Grande Flamme (2021), Black Metal
post Jul 20 2021, 18:13:10
Post #1

Правь статус, ####!616
**************
Group: Металариец
Posts: 6,614
Releases: 5083
From: 55°35’N 38°08’E
On Forums: 13 years 2 weeks
Thanks: 93553 time(s)
Unknown


(IMG:https://metalarea.org/images/audiocovers/2021_Jul/acov_tid353617_thumb.jpg)

*Artist: Pénombre
*Album: Grande Flamme
*Year: 2021
*Genre: Black Metal
*Country: Canada (IMG:https://metalarea.org/forum/style_images/flags/Canada.png)
*Format: mp3@CBR320kbps
*Size: 84MB

Tracklist:
1.Maux de crasse 03:49
2.La solitude seule, isolée de l'homme 03:51
3.Grande flamme 04:12
4.La main de l'infâme 04:16
5.Meurtre couronné 04:08
6.Existence transitoire 04:08
7.Mourir comme un mal-aimé 03:06
8.Cœurs blasés 04:08
9.À la sortie des champs funèbres 04:27
******************************
Total playing time: 36:05



Technical info
(IMG:https://metalarea.org/images/spectrogram/2021_Jul/7e38bb2569ccaf6b13b45d4c0202eb8b.png)
Input File: 01 Maux de crasse.mp3
Channels : 2
Sample Rate : 44100
Precision : 16-bit
Duration : 00:03:49.58 = 10124434 samples = 17218.4 CDDA sectors
File Size : 9.26M
Bit Rate : 323k
Sample Encoding: MPEG audio (layer I, II or III)
Comments :
Title=Maux de crasse
Artist=Pénombre
Album=Grande Flamme
Tracknumber=1
Year=2021
Genre=Black Metal



Register


Go to the top of the page
  Insert nick Quick quote
+Quote Post

Reply to this topicStart new topic
1 User(s) are reading this topic (1 Guests and 0 Anonymous Users)
0 Members:

 



- Lo-Fi Version Support form
Copyrights and abuse reports form
Time is now: 27th July 2021 - 18:26:17