Welcome Guest ( Log In | Register )

> Releases Upload / Добавление релизов

Добавить релиз тут / Click here to add release
Рекомендованные обменники / Recommended file shares

 
Reply to this topicStart new topic
> Gristmill - Heavy Everything (2021), Stoner/Doom Metal
post Jul 20 2021, 18:21:52
Post #1

Правь статус, ####!111
**************
Group: Металариец
Posts: 4,159
Releases: 3812
From: Одесса
On Forums: 13 years 1 month
Thanks: 41681 time(s)
Ukraine


(IMG:http://metalarea.org/images/audiocovers/2021_Jul/acov_tid353618_thumb.jpg)

*Artist: Gristmill
*Album: Heavy Everything
*Year: 2021
*Genre: Stoner/Doom Metal
*Country: United States (IMG:http://metalarea.org/forum/style_images/flags/United%20States.png)
*Format: mp3@CBR320kbps
*Size: 115MB

Tracklist:
1. Mitch 05:16
2. Mute 04:26
3. Irony 04:12
4. The Goblin 04:34
5. Remains Nameless 04:56
6. Glass Door 08:42
7. Interlude 01:08
8. Stone Rodeo 07:48
9. Loon 07:34
******************************
Total playing time: 48:36



Technical info
(IMG:http://metalarea.org/images/spectrogram/2021_Jul/5ed2ebdb7e6d7ff5b78859b2675022e7.png)
Input File: 02. Mute.mp3
Channels : 2
Sample Rate : 44100
Precision : 16-bit
Duration : 00:04:26.41 = 11748857 samples = 19981 CDDA sectors
File Size : 10.7M
Bit Rate : 322k
Sample Encoding: MPEG audio (layer I, II or III)
Comments :
Title=Mute
Artist=Gristmill
Album=Heavy Everything
Tracknumber=2
Year=2021
Genre=Stoner/Doom Metal



Register


Go to the top of the page
  Insert nick Quick quote
+Quote Post

Reply to this topicStart new topic
1 User(s) are reading this topic (1 Guests and 0 Anonymous Users)
0 Members:

 



- Lo-Fi Version Support form
Copyrights and abuse reports form
Time is now: 27th July 2021 - 18:46:38