Welcome Guest ( Log In | Register )

> Releases Upload / Добавление релизов

Добавить релиз тут / Click here to add release
Рекомендованные обменники / Recommended file shares

> Misanthropic Darkwoods - Intolerance For Mankind (2021), Black Metal
post Jul 20 2021, 18:40:24
Post #1

Правь статус, ####!616
**************
Group: Металариец
Posts: 6,614
Releases: 5083
From: 55°35’N 38°08’E
On Forums: 13 years 2 weeks
Thanks: 93557 time(s)
Unknown


(IMG:https://metalarea.org/images/audiocovers/2021_Jul/acov_tid353620_thumb.jpg)

*Artist: Misanthropic Darkwoods
*Album: Intolerance For Mankind
*Year: 2021
*Genre: Black Metal
*Country: Ecuador (IMG:https://metalarea.org/forum/style_images/flags/Ecuador.png)
*Format: mp3@CBR320kbps
*Size: 74MB

Tracklist:
1.Misanthropic Darkwoods 06:56
2.Wolf Breed 05:22
3.Legend Of A Strongest Belief 06:21
4.Death's Embrace 05:43
5.The Hidden Curse 04:05
6.Rebirth 03:21
******************************
Total playing time: 31:48



Technical info
(IMG:https://metalarea.org/images/spectrogram/2021_Jul/076c402c5383c7854e202c131c3154fa.png)
Input File: 01 Misanthropic Darkwoods.mp3
Channels : 2
Sample Rate : 44100
Precision : 16-bit
Duration : 00:06:56.84 = 18382468 samples = 31262.7 CDDA sectors
File Size : 16.8M
Bit Rate : 323k
Sample Encoding: MPEG audio (layer I, II or III)
Comments :
Title=Misanthropic Darkwoods
Artist=Misanthropic Darkwoods
Album=Intolerance For Mankind
Tracknumber=1
Year=2021
Genre=Black Metal



Register


Go to the top of the page
  Insert nick Quick quote
+Quote Post
 
Start new topic
Replies (1 - 3)
post Jul 21 2021, 16:10:03
Post #2

дьявол воплоти
**********
Group: Металариец
Posts: 1,091
Releases: 7
On Forums: 10 years 10 months
Thanks: 1419 time(s)
Ukraine


https://youtu.be/9cQlVww0zKo


Thanks:
Go to the top of the page
  Insert nick Quick quote
+Quote Post
post Jul 21 2021, 16:31:22
Post #3

0%Tolerance
**********
Group: Металариец
Posts: 1,148
Releases: 0
On Forums: 8 years 10 months
Thanks: 205 time(s)
Unknown


ЦИТАТА(tormoz @ Jul 21 2021, 16:10:03) *

Говнари в стаффе переобулись шо-ли? (IMG:style_emoticons/default/1488.gif)


Относительно содержимого: подвальные латиносовские пункеры нарезают блэк на том, что подворачивается под руку. Чем засранее кастрюля, тем трушнее звук. (IMG:style_emoticons/default/1488.gif) (IMG:style_emoticons/default/true_black.gif) По концовке скатываются вообще в около-экспериментальщину под местную трехструнную лалабайку.
Два раза, чтоб зафиксировать, послушать можно. Подвалом и экспериментальщиной тащат.
Go to the top of the page
  Insert nick Quick quote
+Quote Post
post Jul 22 2021, 15:41:24
Post #4

Два Литра
**
Group: Завсегдатай
Posts: 147
Releases: 0
On Forums: 5 years 10 months
Thanks: 162 time(s)
Palau


Очень классный альбом, в духе Horna и Goatmoon. (IMG:style_emoticons/default/pray.gif)
Go to the top of the page
  Insert nick Quick quote
+Quote Post

Reply to this topicStart new topic
2 User(s) are reading this topic (2 Guests and 0 Anonymous Users)
0 Members:

 



- Lo-Fi Version Support form
Copyrights and abuse reports form
Time is now: 27th July 2021 - 20:08:29