Welcome Guest ( Log In | Register )

 
Reply to this topicStart new topic
> Fini - Cold In Our Hearts [ep] (2021), Black Metal
post Jul 20 2021, 22:15:06
Post #1

Правь статус, ####!616
**************
Group: Металариец
Posts: 6,938
Releases: 5391
From: 55°35’N 38°08’E
On Forums: 13 years 2 months
Thanks: 98756 time(s)
Unknown


(IMG:https://metalarea.org/images/audiocovers/2021_Jul/acov_tid353623_thumb.jpg)

*Artist: Fini
*Album: Cold In Our Hearts [ep]
*Year: 2021
*Genre: Black Metal
*Country: Maldives (IMG:https://metalarea.org/forum/style_images/flags/Maldives.png)
*Format: mp3@CBR320kbps
*Size: 35MB

Tracklist:
1.Cold In Our Hearts I 07:27
2.Cold In Our Hearts II 06:06
******************************
Total playing time: 13:33



(IMG:https://metalarea.org/images/youtube.png)

Technical info
(IMG:https://metalarea.org/images/spectrogram/2021_Jul/db1cf37adb1f828d1c2707359966075f.png)
Input File: 01 Cold In Our Hearts I.mp3
Channels : 2
Sample Rate : 44100
Precision : 16-bit
Duration : 00:07:27.30 = 19725754 samples = 33547.2 CDDA sectors
File Size : 18.1M
Bit Rate : 324k
Sample Encoding: MPEG audio (layer I, II or III)
Comments :
Title=Cold In Our Hearts I
Artist=Fini
Album=Cold In Our Hearts
Tracknumber=1
Year=2021
Genre=Black Metal



Register


Go to the top of the page
  Insert nick Quick quote
+Quote Post

Reply to this topicStart new topic
1 User(s) are reading this topic (1 Guests and 0 Anonymous Users)
0 Members:

 



- Lo-Fi Version Support form
Copyrights and abuse reports form
Time is now: 20th September 2021 - 02:47:12