Welcome Guest ( Log In | Register )

> Releases Upload / Добавление релизов

Добавить релиз тут / Click here to add release
Рекомендованные обменники / Recommended file shares

> Pestlegion - Entsage Gott [ep] (2018), Black Metal
post Jul 20 2021, 22:17:58
Post #1

Group: Подсевший
Posts: 25
Releases: 13
From: Bavaria
On Forums: 2 years 2 weeks
Thanks: 99 time(s)
Germany


(IMG:https://metalarea.org/images/audiocovers/2021_Jul/acov_tid353624_thumb.jpg)

*Artist: Pestlegion
*Album: Entsage Gott [ep]
*Year: 2018
*Genre: Black Metal
*Country: Germany (IMG:https://metalarea.org/forum/style_images/flags/Germany.png)
*Format: mp3@VBR253kbps
*Size: 17MB

Tracklist:
1. Entsage Gott 04:43
2. Final Sacrifice 04:00
******************************
Total playing time: 8:43

Extended info


Technical info
(IMG:https://metalarea.org/images/spectrogram/2021_Jul/9f5aba9356add421beb6b52aebb453fe.png)
Input File: Pestlegion - Entsage Gott - 01 Entsage Gott.mp3
Channels : 2
Sample Rate : 44100
Precision : 16-bit
Duration : 00:04:43.25 = 12491105 samples = 21243.4 CDDA sectors
File Size : 9.05M
Bit Rate : 256k
Sample Encoding: MPEG audio (layer I, II or III)
Comments :
Title=Entsage Gott
Artist=Pestlegion
Album=Entsage Gott
Tracknumber=1
Year=2018



Register


Go to the top of the page
  Insert nick Quick quote
+Quote Post
 
Start new topic
Replies (1 - 1)
post Jul 21 2021, 06:44:55
Post #2

Group: Дух
Posts: 4
Releases: 0
On Forums: 1 month 3 weeks
Thanks: 2 time(s)
Bulgaria


https://www.youtube.com/watch?v=ClxrYLkALUM&list=PLF_vfuIVnG0EAOAdfxX-XoOJE0s2Slu2D&index=6


Thanks:
(1) Occultas,
Go to the top of the page
  Insert nick Quick quote
+Quote Post

Reply to this topicStart new topic
2 User(s) are reading this topic (2 Guests and 0 Anonymous Users)
0 Members:

 



- Lo-Fi Version Support form
Copyrights and abuse reports form
Time is now: 27th July 2021 - 18:22:58