Welcome Guest ( Log In | Register )

> Releases Upload / Добавление релизов

Добавить релиз тут / Click here to add release
Рекомендованные обменники / Recommended file shares

> Leichenzug - Krieg (Burzum Cover) [single] (2018), Black Metal/Pagan Metal (D)
post Jul 20 2021, 22:26:38
Post #1

Group: Подсевший
Posts: 25
Releases: 13
From: Bavaria
On Forums: 2 years 2 weeks
Thanks: 99 time(s)
Germany


(IMG:https://metalarea.org/images/audiocovers/2021_Jul/acov_tid353625_thumb.jpg)

*Artist: Leichenzug
*Album: Krieg (Burzum Cover) [single]
*Year: 2018
*Genre: Black Metal/Pagan Metal
*Country: Germany (IMG:https://metalarea.org/forum/style_images/flags/Germany.png)
*Format: mp3@VBR269kbps
*Size: 5MB

Tracklist:
1. Krieg (Burzum Cover) 02:26
******************************
Total playing time: 2:26

Extended info


Technical info
(IMG:https://metalarea.org/images/spectrogram/2021_Jul/085d55b996e8fe6835739df9a52835a2.png)
Input File: Leichenzug - Krieg (BurzumCover).mp3
Channels : 2
Sample Rate : 44100
Precision : 16-bit
Duration : 00:02:26.18 = 6446582 samples = 10963.6 CDDA sectors
File Size : 5.10M
Bit Rate : 279k
Sample Encoding: MPEG audio (layer I, II or III)
Comments :
Title=Krieg (BurzumCover)
Artist=Leichenzug
Year=2018



Register


Go to the top of the page
  Insert nick Quick quote
+Quote Post
 
Start new topic
Replies (1 - 1)
post Jul 21 2021, 20:38:16
Post #2

Пять Литров
*****
Group: Металариец
Posts: 418
Releases: 18
On Forums: 7 years 10 months
Thanks: 756 time(s)
Iceland


Ahh the well known band who's under observation of the protection of the constitution in Germany from the "Blasphemous Terror Records" owner, where he's selling a lot NSBM and right winged music, also co-operating with "Nebelfee Klangwerke".

I know some people will now complain: "But the lyrics aren't NSBM...". Hey how stupid are you? Nazi music is nazi music and nazi bands are nazi bands. Bile and his band Leichenzug is as well known as the other bands he were or is involved like Halgadom, Camulos, Absurd etc. If you don't give a fuck about rule 1.7 than be at least honest and upload more nazi music. I would like to request "Wolfenhords - White Power For White People Fight". Wait, it is uploaded here with a working Mediafire link. Great. Always good to know that Metalarea still delivers good nazi music, Metalarea is one of the best nazi music download sites actual be honest. Thanks for that.
Go to the top of the page
  Insert nick Quick quote
+Quote Post

Reply to this topicStart new topic
1 User(s) are reading this topic (1 Guests and 0 Anonymous Users)
0 Members:

 



- Lo-Fi Version Support form
Copyrights and abuse reports form
Time is now: 27th July 2021 - 19:34:54