Welcome Guest ( Log In | Register )

> Releases Upload / Добавление релизов

Добавить релиз тут / Click here to add release
Рекомендованные обменники / Recommended file shares

 
Reply to this topicStart new topic
> Anteomedroma - Anteomedroma I [ep] (2021), Black Metal
post Jul 20 2021, 22:44:48
Post #1

Правь статус, ####!616
**************
Group: Металариец
Posts: 6,614
Releases: 5083
From: 55°35’N 38°08’E
On Forums: 13 years 2 weeks
Thanks: 93555 time(s)
Unknown


(IMG:https://metalarea.org/images/audiocovers/2021_Jul/acov_tid353626_thumb.jpg)

*Artist: Anteomedroma
*Album: Anteomedroma I [ep]
*Year: 2021
*Genre: Black Metal
*Country: United States (IMG:https://metalarea.org/forum/style_images/flags/United%20States.png)
*Format: mp3@CBR320kbps
*Size: 56MB

Tracklist:
1.Crepescula Perpetua (Intro) 01:48
2.The Light Which Can Be Seen But Never Reached 05:53
3.Emanations From Beyond The Hidden Flame 04:54
4.A Resentable Disposition 04:18
5.Malevolent Conviction of the Human Spirit 05:46
6.Angels Collapsing Under Apathy (Outro) 01:11
******************************
Total playing time: 23:50



Technical info
(IMG:https://metalarea.org/images/spectrogram/2021_Jul/bb94eacd9e2d32e3620cf9ea6e38e110.png)
Input File: 02 The Light Which Can Be Seen But Never Reached.mp3
Channels : 2
Sample Rate : 44100
Precision : 16-bit
Duration : 00:05:53.59 = 15593319 samples = 26519.2 CDDA sectors
File Size : 14.3M
Bit Rate : 324k
Sample Encoding: MPEG audio (layer I, II or III)
Comments :
Title=The Light Which Can Be Seen But Never Reached
Artist=Anteomedroma
Album=Anteomedroma I
Tracknumber=2
Year=2021
Genre=Black Metal



Register


Go to the top of the page
  Insert nick Quick quote
+Quote Post

Reply to this topicStart new topic
2 User(s) are reading this topic (2 Guests and 0 Anonymous Users)
0 Members:

 



- Lo-Fi Version Support form
Copyrights and abuse reports form
Time is now: 27th July 2021 - 19:05:27