Welcome Guest ( Log In | Register )

> Releases Upload / Добавление релизов

Добавить релиз тут / Click here to add release
Рекомендованные обменники / Recommended file shares

> Deathfucker - Firespawn (2021), Thrash/Death Metal
post Jul 20 2021, 23:34:32
Post #1

Правь статус, ####!111
**************
Group: Металариец
Posts: 26,673
Releases: 19234
From: Г.Харьков
On Forums: 9 years 2 months
Thanks: 384918 time(s)
Unknown


(IMG:https://metalarea.org/images/audiocovers/2021_Jul/acov_tid353627_thumb.jpg)

*Artist: Deathfucker
*Album: Firespawn
*Year: 2021
*Genre: Thrash/Death Metal
*Country: Italy (IMG:https://metalarea.org/forum/style_images/flags/Italy.png)
*Format: mp3@CBR320kbps
*Size: 94MB

Tracklist:
1. Firespawn 05:52
2. Damnation Strikes 04:09
3. Sacrificial Slaughter 05:00
4. Emissaries of Hatred 04:13
5. Plague Descends 04:43
6. Temple of Adoration 03:53
7. Hail, Predator! 03:29
8. Violated Salvation 04:26
9. Where Life Dwells in Woe 04:48
******************************
Total playing time: 40:33




Extended info
Pest Bass
See also: Black Ejaculation, Necromutilator, Sadomortuary, Vomitmantik, Obscuritatem, ex-Inverno, ex-Plague Angels (live), ex-Kaiserreich, ex-Vollmond
J.K. Drums (2015-present)
See also: Raw Power, Valgrind, ex-Injury, ex-Dumper
Insulter Vocals, Guitars, Bass (2015-present)
See also: Black Ejaculation, Sadomortuary (live), ex-Inferi


Technical info
(IMG:https://metalarea.org/images/spectrogram/2021_Jul/3491a8b58bb5abef20cf35c468a05048.png)
Input File: Deathfucker - Firespawn - 08 Violated Salvation.mp3
Channels : 2
Sample Rate : 44100
Precision : 16-bit
Duration : 00:04:26.15 = 11737215 samples = 19961.2 CDDA sectors
File Size : 10.8M
Bit Rate : 325k
Sample Encoding: MPEG audio (layer I, II or III)
Comments :
Title=Violated Salvation
Artist=Deathfucker
Album=Firespawn
Tracknumber=8
Year=2021



Register


Go to the top of the page
  Insert nick Quick quote
+Quote Post
 
Start new topic
Replies (1 - 2)
post Jul 21 2021, 03:02:19
Post #2

Правь статус, ####!111
**************
Group: Металариец
Posts: 26,673
Releases: 19234
From: Г.Харьков
On Forums: 9 years 2 months
Thanks: 384918 time(s)
Unknown


FLAC (Tracks) 500 mb
Register


Go to the top of the page
  Insert nick Quick quote
+Quote Post
post Jul 21 2021, 17:39:42
Post #3

Три Литра
***
Group: Завсегдатай
Posts: 279
Releases: 1
From: Moscow
On Forums: 9 years 1 month
Thanks: 72 time(s)
Russian Federation


Бодренько, хоть и однообразненько.


Thanks:
Go to the top of the page
  Insert nick Quick quote
+Quote Post

Reply to this topicStart new topic
2 User(s) are reading this topic (1 Guests and 0 Anonymous Users)
1 Members: CTPEMLEHIE

 



- Lo-Fi Version Support form
Copyrights and abuse reports form
Time is now: 27th July 2021 - 20:03:56