Welcome Guest ( Log In | Register )

> Angst - The Vile (2021), Black Metal (D)
post Jul 20 2021, 23:54:54
Post #1

Правь статус, ####!616
**************
Group: Металариец
Posts: 6,998
Releases: 5442
From: 55°35’N 38°08’E
On Forums: 13 years 2 months
Thanks: 99781 time(s)
Unknown


(IMG:https://metalarea.org/images/audiocovers/2021_Jul/acov_tid353628_thumb.jpg)

*Artist: Angst
*Album: The Vile
*Year: 2021
*Genre: Black Metal
*Country: Portugal (IMG:https://metalarea.org/forum/style_images/flags/Portugal.png)
*Format: mp3@CBR320kbps
*Size: 81MB

Tracklist:
1.I 03:32
2.II 04:29
3.III 04:22
4.IV 05:40
5.V 05:12
6.VI 03:36
7.VII 04:24
8.VIII 03:52
******************************
Total playing time: 35:07




Technical info
(IMG:https://metalarea.org/images/spectrogram/2021_Jul/809b1a409199b113e231c7efb2594666.png)
Input File: 01 I.mp3
Channels : 2
Sample Rate : 44100
Precision : 16-bit
Duration : 00:03:32.23 = 9359475 samples = 15917.5 CDDA sectors
File Size : 8.55M
Bit Rate : 322k
Sample Encoding: MPEG audio (layer I, II or III)
Comments :
Title=I
Artist=ANGST
Album=THE VILE
Tracknumber=1
Year=2021
Genre=Black Metal



Register


Go to the top of the page
  Insert nick Quick quote
+Quote Post
 
Start new topic
Replies (1 - 9)
post Jul 21 2021, 09:09:01
Post #2

Common dweller of hell
**************
Group: Металариец
Posts: 4,012
Releases: 12
From: Dnipro
On Forums: 13 years 2 months
Thanks: 1566 time(s)
Ukraine


почти даркфюнеральщина


Go to the top of the page
  Insert nick Quick quote
+Quote Post
post Jul 22 2021, 06:00:54
Post #3

кручу наждак
**************
Group: Металариец
Posts: 5,134
Releases: 104
From: Самара
On Forums: 11 years 4 months
Thanks: 4122 time(s)
Russian Federation


Качественно.


Thanks:
(1) Occultas,
Go to the top of the page
  Insert nick Quick quote
+Quote Post
post Jul 22 2021, 07:31:15
Post #4

my church is black
**********
Group: Металариец
Posts: 1,104
Releases: 4
On Forums: 4 years 3 months
Thanks: 767 time(s)
Bhutan


Крепкий релиз.


Thanks:
(1) Occultas,
Go to the top of the page
  Insert nick Quick quote
+Quote Post
post Jul 22 2021, 10:44:11
Post #5

Common dweller of hell
**************
Group: Металариец
Posts: 4,012
Releases: 12
From: Dnipro
On Forums: 13 years 2 months
Thanks: 1566 time(s)
Ukraine


Не люблю португальский Black Metal, но тут все на высшем уровне.
Go to the top of the page
  Insert nick Quick quote
+Quote Post
post Jul 22 2021, 11:33:49
Post #6

While Waiting the Worms
**********
Group: Металариец
Posts: 1,380
Releases: 0
On Forums: 7 years 9 months
Thanks: 2095 time(s)
Unknown


ЦИТАТА(isvili @ Jul 22 2021, 14:44:11) *
Не люблю португальский Black Metal, но тут все на высшем уровне.


"Португальского" тут только географическая принадлежность.
В остальном же, как было подмечено, - ДФ-воршип невысокого пошиба.
Go to the top of the page
  Insert nick Quick quote
+Quote Post
post Jul 22 2021, 15:44:15
Post #7

Common dweller of hell
**************
Group: Металариец
Posts: 4,012
Releases: 12
From: Dnipro
On Forums: 13 years 2 months
Thanks: 1566 time(s)
Ukraine


ЦИТАТА(Sangreal @ Jul 22 2021, 13:33:49) *
"Португальского" тут только географическая принадлежность.

Так по этому и понравился (IMG:style_emoticons/default/25.gif)
Go to the top of the page
  Insert nick Quick quote
+Quote Post
post Jul 23 2021, 13:47:57
Post #8

Шесть Литров
******
Group: Металариец
Posts: 596
Releases: 0
From: Лыткарино
On Forums: 2 years 4 months
Thanks: 154 time(s)
Russian Federation


Да, слегка в духе ДФ, но неплохо, лучше среднего)


Thanks:
(1) Occultas,
Go to the top of the page
  Insert nick Quick quote
+Quote Post
post Aug 2 2021, 18:21:11
Post #9

melofags sniper
**************
Group: Металариец
Posts: 6,346
Releases: 0
On Forums: 13 years 6 months
Thanks: 7118 time(s)
Unknown


This is poor. The Dark Funeral of the bum. Nothing interesting nor qualitative unfortunately.
Go to the top of the page
  Insert nick Quick quote
+Quote Post
post Aug 2 2021, 18:31:15
Post #10

Common dweller of hell
**************
Group: Металариец
Posts: 4,012
Releases: 12
From: Dnipro
On Forums: 13 years 2 months
Thanks: 1566 time(s)
Ukraine


LOSSLESS? (IMG:style_emoticons/default/pray.gif)
Go to the top of the page
  Insert nick Quick quote
+Quote Post

Reply to this topicStart new topic
2 User(s) are reading this topic (2 Guests and 0 Anonymous Users)
0 Members:

 



- Lo-Fi Version Support form
Copyrights and abuse reports form
Time is now: 25th September 2021 - 22:27:41