Welcome Guest ( Log In | Register )

> Releases Upload / Добавление релизов

Добавить релиз тут / Click here to add release
Рекомендованные обменники / Recommended file shares

> Panzerwar - Abhorrent Antediluvian Blessings (2021), Black Metal (D12)
post Jul 20 2021, 23:55:50
Post #1

Шесть Литров
******
Group: Металариец
Posts: 535
Releases: 481
On Forums: 2 months 4 weeks
Thanks: 11475 time(s)
United States


(IMG:https://metalarea.org/images/audiocovers/2021_Jul/acov_tid353629_thumb.jpg)

*Artist: Panzerwar
*Album: Abhorrent Antediluvian Blessings
*Year: 2021
*Genre: Black Metal
*Country: Canada (IMG:https://metalarea.org/forum/style_images/flags/Canada.png)
*Format: mp3@CBR320kbps
*Size: 117MB

Tracklist:
01. True To The Voices Of Old
02. Land Of The Forlorn
03. The Axe Of Boniface
04. Sempiternal Gates Of Freedom
05. In Search Of A Lost Memory Pt. II
06. The Sign Of Blackened Wings
07. Flames Of The Lost Pyre
08. A Pagan Dance Under The Pale Moon
09. Foul Blessings Of The Dead
10. Barbarity Not Suited For This Age
******************************
Total playing time: 46:25



Technical info
(IMG:https://metalarea.org/images/spectrogram/2021_Jul/76c92d631f3f38a2c1c052c901b91979.png)
Input File: 02. Land Of The Forlorn.mp3
Channels : 2
Sample Rate : 44100
Precision : 16-bit
Duration : 00:04:53.19 = 12929723 samples = 21989.3 CDDA sectors
File Size : 11.8M
Bit Rate : 323k
Sample Encoding: MPEG audio (layer I, II or III)
Comments :
Title=Land Of The Forlorn
Artist=Panzerwar
Album=Abhorrent Antediluvian Blessings
Tracknumber=02/10
Year=2021-07-21
Genre=Metal
Discnumber=1



Register


Go to the top of the page
  Insert nick Quick quote
+Quote Post
 
Start new topic
Replies (1 - 2)
post Jul 21 2021, 09:45:32
Post #2

0%Tolerance
**********
Group: Металариец
Posts: 1,142
Releases: 0
On Forums: 8 years 10 months
Thanks: 205 time(s)
Unknown


Три пеЙсни, выложенные говнариком на бэкампе оказались не так уж и плохи. Может спецом замануха, блть. Остальные в альбоме вообще лютый порожняк будут? Дилемма почти, сук0. (IMG:style_emoticons/default/1488.gif)
Go to the top of the page
  Insert nick Quick quote
+Quote Post
post Jul 22 2021, 11:04:59
Post #3

Common dweller of hell
**************
Group: Металариец
Posts: 3,878
Releases: 12
From: Dnipro
On Forums: 13 years 1 week
Thanks: 1522 time(s)
Ukraine


Какая то вполне не плохая смесь heavy/thrash/black metal
Go to the top of the page
  Insert nick Quick quote
+Quote Post

Reply to this topicStart new topic
1 User(s) are reading this topic (1 Guests and 0 Anonymous Users)
0 Members:

 



- Lo-Fi Version Support form
Copyrights and abuse reports form
Time is now: 26th July 2021 - 00:22:03