Welcome Guest ( Log In | Register )

> Releases Upload / Добавление релизов

Добавить релиз тут / Click here to add release
Рекомендованные обменники / Recommended file shares

> Grotesque Deity - Dark Arts Of Torture And Pleasure (2021), Old School Death Metal (D4)
post Jul 21 2021, 02:57:47
Post #1

Правь статус, ####!111
**************
Group: Металариец
Posts: 26,661
Releases: 19228
From: Г.Харьков
On Forums: 9 years 2 months
Thanks: 384637 time(s)
Unknown


(IMG:https://metalarea.org/images/audiocovers/2021_Jul/acov_tid353630_thumb.jpg)

*Artist: Grotesque Deity
*Album: Dark Arts Of Torture And Pleasure
*Year: 2021
*Genre: Old School Death Metal
*Country: Mexico (IMG:https://metalarea.org/forum/style_images/flags/Mexico.png)
*Format: mp3@CBR320kbps
*Size: 128MB

Tracklist:
1. Beginning of Deity 07:23
2. Faith Is Dead 04:23
3. Voices from the Cursed Tomb 05:43
4. In the Grave of the Lost Race 04:39
5. Crypt Breaker 05:15
6. Era of Darkness 04:47
7. Dark Arts of Torture and Pleasure 05:11
8. Serenity 04:59
9. Acient Ritual 05:30
10. Darkest Agony 05:12
******************************
Total playing time: 53:02




Extended info
Alejandro Ángeles Drums
See also: Blasphemathory, Cryptogeny, Foeticide, In Obscurity Revealed, Inferna, Nothingness, Putrescence, Slaves of Pain, ex-Pyphomgertum, ex-Metralla
Francisco Corleone Guitars (?-2016), Bass, Vocals (2016-present)
Leonardo Valdez Guitars
See also: Fractal Entropy, Peccator, Undertomb, Zombiechrist, ex-Remains, Agord
Necro Guitars (2018-present)
See also: Cryptogeny, Fractal Entropy, The Fury I Hide, ex-Rapture


Technical info
(IMG:https://metalarea.org/images/spectrogram/2021_Jul/4539194266b9a134d0f80ff7800be41f.png)
Input File: 07. Dark Arts of Torture and Pleasure.mp3
Channels : 2
Sample Rate : 44100
Precision : 16-bit
Duration : 00:05:11.27 = 13726963 samples = 23345.2 CDDA sectors
File Size : 13.1M
Bit Rate : 336k
Sample Encoding: MPEG audio (layer I, II or III)
Comments :
Title=Dark Arts of Torture and Pleasure
Artist=Grotesque Deity
Album=Dark Arts of Torture and Pleasure (320)
Tracknumber=07
Year=2021
Genre=Metal



Register


Go to the top of the page
  Insert nick Quick quote
+Quote Post
 
Start new topic
Replies (1 - 1)
post Jul 22 2021, 09:46:46
Post #2

Маньяк
**********
Group: Металариец
Posts: 1,066
Releases: 1
From: APATIN, SERBIA, АПАТИН, СЕРБИЯ
On Forums: 13 years 9 months
Thanks: 2443 time(s)



Flac

Register


Go to the top of the page
  Insert nick Quick quote
+Quote Post

Reply to this topicStart new topic
1 User(s) are reading this topic (1 Guests and 0 Anonymous Users)
0 Members:

 



- Lo-Fi Version Support form
Copyrights and abuse reports form
Time is now: 25th July 2021 - 23:29:04