Welcome Guest ( Log In | Register )

> Releases Upload / Добавление релизов

Добавить релиз тут / Click here to add release
Рекомендованные обменники / Recommended file shares

 
Reply to this topicStart new topic
> Reign Of Terror - The Final March [ep] (2021), Death Metal (D6)
post Jul 21 2021, 14:07:00
Post #1

Правь статус, ####!111
**************
Group: Металариец
Posts: 26,673
Releases: 19234
From: Г.Харьков
On Forums: 9 years 2 months
Thanks: 384918 time(s)
Unknown


(IMG:https://metalarea.org/images/audiocovers/2021_Jul/acov_tid353634_thumb.jpg)

*Artist: Reign Of Terror
*Album: The Final March [ep]
*Year: 2021
*Genre: Death Metal
*Country: United Kingdom (IMG:https://metalarea.org/forum/style_images/flags/United%20Kingdom.png)
*Format: mp3@CBR320kbps
*Size: 48MB

Tracklist:
1. Pawns To Slaughter 04:44
2. No Survivors 04:05
3. Pile Of Corpses 03:59
4. Point Blank Execution 03:21
5. Eraser (Hypocrisy Cover) 04:30
******************************
Total playing time: 20:39



Technical info
(IMG:https://metalarea.org/images/spectrogram/2021_Jul/8ef038b5c42eb74dcd6d80cc8584c84e.png)
Input File: Reign Of Terror - The Final March (EP) - 03 Pile Of Corpses.mp3
Channels : 2
Sample Rate : 44100
Precision : 16-bit
Duration : 00:04:00.00 = 10584000 samples = 18000 CDDA sectors
File Size : 9.72M
Bit Rate : 324k
Sample Encoding: MPEG audio (layer I, II or III)
Comments :
Title=Pile Of Corpses
Artist=Reign Of Terror
Album=The Final March (EP)
Tracknumber=3
Year=2021



Register


Go to the top of the page
  Insert nick Quick quote
+Quote Post

Reply to this topicStart new topic
2 User(s) are reading this topic (2 Guests and 0 Anonymous Users)
0 Members:

 



- Lo-Fi Version Support form
Copyrights and abuse reports form
Time is now: 27th July 2021 - 20:00:51