Welcome Guest ( Log In | Register )

 
Reply to this topicStart new topic
> Cultum Interitum - Veneration Of The New Dawn (2021), Black/Death Metal (D4)
post Jul 21 2021, 15:13:20
Post #1

Правь статус, ####!111
**************
Group: Металариец
Posts: 27,448
Releases: 19929
From: Г.Харьков
On Forums: 9 years 4 months
Thanks: 402401 time(s)
Unknown


(IMG:https://metalarea.org/images/audiocovers/2021_Jul/acov_tid353635_thumb.jpg)

*Artist: Cultum Interitum
*Album: Veneration Of The New Dawn
*Year: 2021
*Genre: Black/Death Metal
*Country: Poland (IMG:https://metalarea.org/forum/style_images/flags/Poland.png)
*Format: mp3@CBR320kbps
*Size: 72MB

Tracklist:
1. Veneration I 07:12
2. Veneration II 03:25
3. Veneration III 04:20
4. Veneration IV 06:28
5. Veneration V 05:09
6. Veneration VI 05:07
******************************
Total playing time: 31:41




Extended info
K. M. Guitars, Bass, Drums
E Vocals


Technical info
(IMG:https://metalarea.org/images/spectrogram/2021_Jul/a14df6f01ada93ea5e1bd147651914be.png)
Input File: 04 - Veneration IV.mp3
Channels : 2
Sample Rate : 44100
Precision : 16-bit
Duration : 00:06:28.53 = 17134305 samples = 29140 CDDA sectors
File Size : 15.5M
Bit Rate : 320k
Sample Encoding: MPEG audio (layer I, II or III)
Comments :
Title=Veneration IV
Artist=Cultum Interitum
Album=Veneration of the New Dawn
Tracknumber=4
Year=2021
Genre=Metal



Register


Go to the top of the page
  Insert nick Quick quote
+Quote Post

Reply to this topicStart new topic
2 User(s) are reading this topic (2 Guests and 0 Anonymous Users)
0 Members:

 



- Lo-Fi Version Support form
Copyrights and abuse reports form
Time is now: 28th September 2021 - 08:25:16