Welcome Guest ( Log In | Register )

> Releases Upload / Добавление релизов

Добавить релиз тут / Click here to add release
Рекомендованные обменники / Recommended file shares

 
Reply to this topicStart new topic
> Skytale - The Storyteller [ep] (2021), Heavy/Folk Metal
post Jul 21 2021, 15:30:44
Post #1

Правь статус, ####!111
**************
Group: Металариец
Posts: 26,673
Releases: 19234
From: Г.Харьков
On Forums: 9 years 2 months
Thanks: 384919 time(s)
Unknown


(IMG:https://metalarea.org/images/audiocovers/2021_Jul/acov_tid353636_thumb.jpg)

*Artist: Skytale
*Album: The Storyteller [ep]
*Year: 2021
*Genre: Heavy/Folk Metal
*Country: Germany (IMG:https://metalarea.org/forum/style_images/flags/Germany.png)
*Format: mp3@CBR320kbps
*Size: 56MB

Tracklist:
1. The Storyteller 08:27
2. Across the Desert 04:23
3. Dead Man 05:42
4. A Thousand Words 05:37
******************************
Total playing time: 24:09




Extended info
Kerstin Cello
Jojo Drums, Background Vocals
Jo Lead Guitar, Background Vocals
Ian Vocals, Tin Whisle, Low Whistle
Markus Bass


Technical info
(IMG:https://metalarea.org/images/spectrogram/2021_Jul/3638d85680820fbeb53844bdda8b0374.png)
Input File: 03 - Dead Man.mp3
Channels : 2
Sample Rate : 44100
Precision : 16-bit
Duration : 00:05:41.00 = 15038100 samples = 25575 CDDA sectors
File Size : 13.8M
Bit Rate : 324k
Sample Encoding: MPEG audio (layer I, II or III)
Comments :
Title=Dead Man
Artist=Skytale
Album=The Storyteller
Tracknumber=3
Year=2021-07-16
Genre=Metal
Discnumber=1



Register


Go to the top of the page
  Insert nick Quick quote
+Quote Post

Reply to this topicStart new topic
2 User(s) are reading this topic (2 Guests and 0 Anonymous Users)
0 Members:

 



- Lo-Fi Version Support form
Copyrights and abuse reports form
Time is now: 27th July 2021 - 20:24:13