Welcome Guest ( Log In | Register )

> Releases Upload / Добавление релизов

Добавить релиз тут / Click here to add release
Рекомендованные обменники / Recommended file shares

 
Reply to this topicStart new topic
> Atomic Fate - This Is Only The Beginning (2020), Thrash Metal
post Jul 21 2021, 16:29:22
Post #1

Правь статус, ####!111
**************
Group: Металариец
Posts: 26,661
Releases: 19228
From: Г.Харьков
On Forums: 9 years 2 months
Thanks: 384609 time(s)
Unknown


(IMG:https://metalarea.org/images/audiocovers/2021_Jul/acov_tid353637_thumb.jpg)

*Artist: Atomic Fate
*Album: This Is Only The Beginning
*Year: 2020
*Genre: Thrash Metal
*Country: United States (IMG:https://metalarea.org/forum/style_images/flags/United%20States.png)
*Format: mp3@CBR320kbps
*Size: 74MB

Tracklist:
1. This Is Only the Beginning 02:12
2. Vertigo 04:12
3. When Anarchy Reigns 04:14
4. If It Isn't One Thing... It's the Other 05:25
5. I Don't Want to Live My Life Again 05:58
6. DopeHouse 05:15
7. Reborn 05:06
******************************
Total playing time: 32:22



Technical info
(IMG:https://metalarea.org/images/spectrogram/2021_Jul/f4bf063ff7f4abf4278d0cd2b6a39dd2.png)
Input File: 06 - DopeHouse.mp3
Channels : 2
Sample Rate : 44100
Precision : 16-bit
Duration : 00:05:15.00 = 13891500 samples = 23625 CDDA sectors
File Size : 12.7M
Bit Rate : 323k
Sample Encoding: MPEG audio (layer I, II or III)
Comments :
Title=DopeHouse
Artist=ATOMIC FATE
Album=This Is Only the Beginning
Tracknumber=6
Year=2020-10-21
Genre=Metal
Discnumber=1



Register


Go to the top of the page
  Insert nick Quick quote
+Quote Post

Reply to this topicStart new topic
1 User(s) are reading this topic (1 Guests and 0 Anonymous Users)
0 Members:

 



- Lo-Fi Version Support form
Copyrights and abuse reports form
Time is now: 25th July 2021 - 22:39:20