Welcome Guest ( Log In | Register )

> Releases Upload / Добавление релизов

Добавить релиз тут / Click here to add release
Рекомендованные обменники / Recommended file shares

> Antti Martikainen - Carmina Gloria (2021), Instrumental Symphonic Metal/Soundtrack (D11)
post Jul 21 2021, 17:01:18
Post #1

Правь статус, ####!111
**************
Group: Металариец
Posts: 4,159
Releases: 3811
From: Одесса
On Forums: 13 years 1 month
Thanks: 41642 time(s)
Ukraine


(IMG:http://metalarea.org/images/audiocovers/2021_Jul/acov_tid353638_thumb.jpg)

*Artist: Antti Martikainen
*Album: Carmina Gloria
*Year: 2021
*Genre: Instrumental Symphonic Metal/Soundtrack
*Country: Finland (IMG:http://metalarea.org/forum/style_images/flags/Finland.png)
*Format: mp3@CBR320kbps
*Size: 188MB

Tracklist:
1. Divine Alliance 06:55
2. Durandal 06:37
3. Metal Crusade 06:37
4. Terra Sancta 06:48
5. Blood of Glory 05:45
6. Deliverance 07:41
7. Claymore in the Face 04:39
8. Shining Fate 05:24
9. Defenders of the Cross 08:03
10. The March of the Templars 09:15
11. Victoria Ultima 10:57
******************************
Total playing time: 1:18:41



Extended info
Line - up:
Antti Martikainen - Everything

Guest/Session:
Simone Mularoni - Guitars (lead), Guitars (acoustic) (DGM, Lalu, Lione / Conti, Sunstorm, ex-Empyrios, ex-Sweet Oblivion, ex-Frontiers All Stars)
Francesco Mattei - Guitars (rhythm) (Ethernity, Noveria, Immunity for the Masses)
Ian Fontova - Folk instruments (Frozen Shield, Haunted Gods, Sabaton)
Ruben Monteiro - Oud, Saz baglama, Hurdy gurdy (Alluminia)
Paul Johnston - Gaita, Gralla, Tarota (Bliss, Cathedral, Dorsal Atlântica, Gomorrah)
Natalia Dmukhovskaia - Violin (classical)
Jocelyn Fields - Vocals
Angela Schleihauf - Oboe, English horn (Woods of Ypres)


Technical info
(IMG:http://metalarea.org/images/spectrogram/2021_Jul/e4adb339549246cfedf5d8f43ef4cc0b.png)
Input File: 10 - The March of the Templars.mp3
Channels : 2
Sample Rate : 44100
Precision : 16-bit
Duration : 00:09:15.29 = 24488377 samples = 41646.9 CDDA sectors
File Size : 22.2M
Bit Rate : 320k
Sample Encoding: MPEG audio (layer I, II or III)
Comments :
Title=The March of the Templars
Artist=Antti Martikainen
Album=Carmina Gloria
Tracknumber=10
Year=2021
Genre=Instrumental Symphonic Metal/Soundtrack



Register


Go to the top of the page
  Insert nick Quick quote
+Quote Post
 
Start new topic
Replies (1 - 3)
post Jul 22 2021, 10:37:17
Post #2

Перевозчик
**************
Group: Металариец
Posts: 3,298
Releases: 0
On Forums: 13 years 3 weeks
Thanks: 736 time(s)
Russian Federation


Всё вполне качественно, и даже музыка неплохая, но инструментал - он и в Африке инструментал.
Go to the top of the page
  Insert nick Quick quote
+Quote Post
post Jul 22 2021, 11:56:30
Post #3

Пять Литров
*****
Group: Металариец
Posts: 494
Releases: 0
On Forums: 14 years 6 months
Thanks: 64 time(s)
Russian Federation


Беглое прослушивание - в лучших традициях скандинавского металла.
Go to the top of the page
  Insert nick Quick quote
+Quote Post
post Jul 22 2021, 12:51:38
Post #4

Все люди - черви.
**********
Group: Металариец
Posts: 1,203
Releases: 155
From: Пхёнъян, Северная Корея
On Forums: 8 years 6 months
Thanks: 4767 time(s)
North Korea


Неплохой пиратский метал, под бухло пойдет (IMG:style_emoticons/default/9.gif)
Go to the top of the page
  Insert nick Quick quote
+Quote Post

Reply to this topicStart new topic
1 User(s) are reading this topic (1 Guests and 0 Anonymous Users)
0 Members:

 



- Lo-Fi Version Support form
Copyrights and abuse reports form
Time is now: 25th July 2021 - 22:52:49