Welcome Guest ( Log In | Register )

> Releases Upload / Добавление релизов

Добавить релиз тут / Click here to add release
Рекомендованные обменники / Recommended file shares

 
Reply to this topicStart new topic
> Antinatalist - Celebration Of Ruined Prosperity (2021), Raw Black Metal
post Jul 21 2021, 17:25:56
Post #1

Правь статус, ####!616
**************
Group: Металариец
Posts: 6,614
Releases: 5083
From: 55°35’N 38°08’E
On Forums: 13 years 2 weeks
Thanks: 93557 time(s)
Unknown


(IMG:https://metalarea.org/images/audiocovers/2021_Jul/acov_tid353640_thumb.jpg)

*Artist: Antinatalist
*Album: Celebration Of Ruined Prosperity
*Year: 2021
*Genre: Raw Black Metal
*Country: Canada (IMG:https://metalarea.org/forum/style_images/flags/Canada.png)
*Format: mp3@CBR320kbps
*Size: 54MB

Tracklist:
1.The Lizard's Ancestors Are the Cause of Its Being Hunted 02:35
2.Instinct Maternal Proscribed, the Sterility Demanded 02:41
3.The Least Harm Is Still to Return Where You Come From, and the Sooner the Better! 03:21
4.Life Is Nothing But Suffering, and There Is No Truce in Its Sentences 03:43
5.Never to Have Procreated - Let This Be Your Consolation When You Die 02:43
6.Poisioning the Horrible Waters of the Natural Kingdom 03:16
7.Lord of Orphans and Last Holocaust 03:34
******************************
Total playing time: 21:53

(IMG:https://metalarea.org/images/youtube.png)
Preview 2

Technical info
(IMG:https://metalarea.org/images/spectrogram/2021_Jul/9c3c426c6205a7a2097d2ed8caf07de8.png)
Input File: 01 The Lizard\'s Ancestors Are the Cause of Its Being Hunted.mp3
Channels : 2
Sample Rate : 44100
Precision : 16-bit
Duration : 00:02:34.63 = 6819183 samples = 11597.2 CDDA sectors
File Size : 6.34M
Bit Rate : 328k
Sample Encoding: MPEG audio (layer I, II or III)
Comments :
Title=The Lizard's Ancestors Are the Cause of Its Being Hunted
Artist=Antinatalist
Album=Celebration of Ruined Prosperity
Tracknumber=01
Year=2021
Genre=Black Metal



Register


Go to the top of the page
  Insert nick Quick quote
+Quote Post

Reply to this topicStart new topic
2 User(s) are reading this topic (2 Guests and 0 Anonymous Users)
0 Members:

 



- Lo-Fi Version Support form
Copyrights and abuse reports form
Time is now: 27th July 2021 - 20:18:22