Welcome Guest ( Log In | Register )

> Releases Upload / Добавление релизов

Добавить релиз тут / Click here to add release
Рекомендованные обменники / Recommended file shares

 
Reply to this topicStart new topic
> Shapeless - He Who Whispers Across All Dimensions [ep] (2021), Raw/Atmospheric Black Metal (D4)
post Jul 21 2021, 17:56:44
Post #1

Правь статус, ####!616
**************
Group: Металариец
Posts: 6,609
Releases: 5077
From: 55°35’N 38°08’E
On Forums: 13 years 2 weeks
Thanks: 93407 time(s)
Unknown


(IMG:https://metalarea.org/images/audiocovers/2021_Jul/acov_tid353641_thumb.jpg)

*Artist: Shapeless
*Album: He Who Whispers Across All Dimensions [ep]
*Year: 2021
*Genre: Raw/Atmospheric Black Metal
*Country: Australia (IMG:https://metalarea.org/forum/style_images/flags/Australia.png)
*Format: mp3@CBR320kbps
*Size: 56MB

Tracklist:
1.He Who Whispers Across All Dimensions 11:08
2.Through His Hate, We Are Eternal 12:20
******************************
Total playing time: 23:28



Technical info
(IMG:https://metalarea.org/images/spectrogram/2021_Jul/6534719b7cecc9e9e61ed542ddef5a75.png)
Input File: 02 Through His Hate, We Are Eternal.mp3
Channels : 2
Sample Rate : 44100
Precision : 16-bit
Duration : 00:12:20.30 = 32647318 samples = 55522.6 CDDA sectors
File Size : 29.9M
Bit Rate : 323k
Sample Encoding: MPEG audio (layer I, II or III)
Comments :
Title=Through His Hate, We Are Eternal
Artist=Shapeless
Album=He Who Whispers Across All Dimensions
Tracknumber=2
Year=2021
Genre=Black Metal



Register


Go to the top of the page
  Insert nick Quick quote
+Quote Post

Reply to this topicStart new topic
1 User(s) are reading this topic (1 Guests and 0 Anonymous Users)
0 Members:

 



- Lo-Fi Version Support form
Copyrights and abuse reports form
Time is now: 25th July 2021 - 22:27:28