Welcome Guest ( Log In | Register )

> Releases Upload / Добавление релизов

Добавить релиз тут / Click here to add release
Рекомендованные обменники / Recommended file shares

> Intestinal Hex - The Exalted Chambers Of Abhorrence (2021), Death Metal
post Jul 21 2021, 18:24:51
Post #1

Правь статус, ####!111
**************
Group: Металариец
Posts: 26,671
Releases: 19234
From: Г.Харьков
On Forums: 9 years 2 months
Thanks: 384902 time(s)
Unknown


(IMG:https://metalarea.org/images/audiocovers/2021_Jul/acov_tid353644_thumb.jpg)

*Artist: Intestinal Hex
*Album: The Exalted Chambers Of Abhorrence
*Year: 2021
*Genre: Death Metal
*Country: Canada (IMG:https://metalarea.org/forum/style_images/flags/Canada.png)
*Format: mp3@CBR320kbps
*Size: 65MB

Tracklist:
01. Bowel Transmogrified 02:54
02. Lakes of Vomit 03:31
03. The Ideal Massacre 02:27
04. Defiled Rebirth 02:55
05. Experiments in Surgery 04:10
06. Collisions of the Innocent 03:23
07. Suddenly Psychotic 02:34
08. Parasitic Hallucinations 06:07
******************************
Total playing time: 28:01



Technical info
(IMG:https://metalarea.org/images/spectrogram/2021_Jul/2dc6af8bbb607b1683e750690f667f22.png)
Input File: 08 - Parasitic Hallucinations.mp3
Channels : 2
Sample Rate : 44100
Precision : 16-bit
Duration : 00:06:07.00 = 16184700 samples = 27525 CDDA sectors
File Size : 14.8M
Bit Rate : 323k
Sample Encoding: MPEG audio (layer I, II or III)
Comments :
Title=Parasitic Hallucinations
Artist=Intestinal Hex
Album=The Exalted Chambers of Abhorrence
Tracknumber=8
Year=2021-07-21
Genre=Metal
Discnumber=1



Register


Go to the top of the page
  Insert nick Quick quote
+Quote Post
 
Start new topic
Replies (1 - 1)
post Jul 22 2021, 08:25:30
Post #2

Маньяк
**********
Group: Металариец
Posts: 1,067
Releases: 1
From: APATIN, SERBIA, АПАТИН, СЕРБИЯ
On Forums: 13 years 9 months
Thanks: 2445 time(s)



Flac

Register


Go to the top of the page
  Insert nick Quick quote
+Quote Post

Reply to this topicStart new topic
2 User(s) are reading this topic (2 Guests and 0 Anonymous Users)
0 Members:

 



- Lo-Fi Version Support form
Copyrights and abuse reports form
Time is now: 27th July 2021 - 18:45:37