Welcome Guest ( Log In | Register )

> Releases Upload / Добавление релизов

Добавить релиз тут / Click here to add release
Рекомендованные обменники / Recommended file shares

 
Reply to this topicStart new topic
> Cascades - Cascades (2017), Post-Metal/Sludge/Crust
post Jul 21 2021, 18:36:00
Post #1

Мегаманьяк
***********
Group: Металариец
Posts: 1,982
Releases: 219
From: Omsk, Siberia
On Forums: 12 years 4 months
Thanks: 4554 time(s)
Russian Federation


(IMG:http://metalarea.org/images/audiocovers/2021_Jul/acov_tid353645_thumb.jpg)

*Artist: Cascades
*Album: Cascades
*Year: 2017
*Genre: Post-Metal/Sludge/Crust
*Country: Australia (IMG:http://metalarea.org/forum/style_images/flags/Australia.png)
*Format: mp3@CBR320kbps
*Size: 90MB

Tracklist:
1. Whitewater 09:15
2. Ceaseless 08:51
3. Divide 08:00
4. Cold Bloom 03:24
5. Yearn 05:56
******************************
Total playing time: 35:28




(IMG:http://metalarea.org/images/youtube.png)
(IMG:http://metalarea.org/images/youtube.png)

Extended info
Released through Art As Catharsis Records.

Line-up:
Sam O. - guitar, voice
Liam - guitar, voice
Sam F. - synthesizers
Max - bass
Toby - drums


Technical info
(IMG:http://metalarea.org/images/spectrogram/2021_Jul/826809f05d91e5d86993b29a09594702.png)
Input File: 02 Ceaseless.mp3
Channels : 2
Sample Rate : 44100
Precision : 16-bit
Duration : 00:08:51.67 = 23446779 samples = 39875.5 CDDA sectors
File Size : 21.4M
Bit Rate : 323k
Sample Encoding: MPEG audio (layer I, II or III)
Comments :
Title=Ceaseless
Artist=Cascades
Album=Cascades
Tracknumber=2
Year=2017
Genre=Metal



Register


Go to the top of the page
  Insert nick Quick quote
+Quote Post

Reply to this topicStart new topic
1 User(s) are reading this topic (1 Guests and 0 Anonymous Users)
0 Members:

 



- Lo-Fi Version Support form
Copyrights and abuse reports form
Time is now: 25th July 2021 - 23:39:50