Welcome Guest ( Log In | Register )

> Releases Upload / Добавление релизов

Добавить релиз тут / Click here to add release
Рекомендованные обменники / Recommended file shares

> Svartr - Chants Of A Delusional Mind (2021), Black Metal
post Jul 21 2021, 18:41:05
Post #1

Правь статус, ####!111
**************
Group: Металариец
Posts: 26,672
Releases: 19234
From: Г.Харьков
On Forums: 9 years 2 months
Thanks: 384908 time(s)
Unknown


(IMG:https://metalarea.org/images/audiocovers/2021_Jul/acov_tid353646_thumb.jpg)

*Artist: Svartr
*Album: Chants Of A Delusional Mind
*Year: 2021
*Genre: Black Metal
*Country: Brazil (IMG:https://metalarea.org/forum/style_images/flags/Brazil.png)
*Format: mp3@CBR320kbps
*Size: 69MB

Tracklist:
01. Chants of a Delusional Mind (Intro) 01:30
02. From the Carrier to the Grave 03:18
03. Abyss 03:26
04. Seven Layers of Skin 03:22
05. The Fire Cliff 03:57
06. Loneliness 02:58
07. Schizophrenia 03:21
08. The Great Filter 02:28
09. Misanthropy 06:01
******************************
Total playing time: 30:21

Technical info
(IMG:https://metalarea.org/images/spectrogram/2021_Jul/8a892d101494959ef9d35ae79420d93e.png)
Input File: 09 - Misanthropy.mp3
Channels : 2
Sample Rate : 44100
Precision : 16-bit
Duration : 00:06:01.09 = 15923937 samples = 27081.5 CDDA sectors
File Size : 14.4M
Bit Rate : 320k
Sample Encoding: MPEG audio (layer I, II or III)
Comments :
Title=Misanthropy
Artist=Svartr
Album=Chants of a Delusional Mind
Tracknumber=9
Year=2021



Register


Go to the top of the page
  Insert nick Quick quote
+Quote Post
 
Start new topic
Replies (1 - 1)
post Jul 23 2021, 08:05:14
Post #2

I hate you all
**************
Group: Металариец
Posts: 2,622
Releases: 82
From: Ukraine
On Forums: 14 years 2 months
Thanks: 6668 time(s)
Ukraine




Thanks:
(1) Orkkh,
Go to the top of the page
  Insert nick Quick quote
+Quote Post

Reply to this topicStart new topic
2 User(s) are reading this topic (2 Guests and 0 Anonymous Users)
0 Members:

 



- Lo-Fi Version Support form
Copyrights and abuse reports form
Time is now: 27th July 2021 - 19:26:02