Welcome Guest ( Log In | Register )

> Releases Upload / Добавление релизов

Добавить релиз тут / Click here to add release
Рекомендованные обменники / Recommended file shares

 
Reply to this topicStart new topic
> G'rova - The Lost Gate (2021), Heavy/Thrash Metal
post Jul 21 2021, 18:52:25
Post #1

Правь статус, ####!111
**************
Group: Металариец
Posts: 26,672
Releases: 19234
From: Г.Харьков
On Forums: 9 years 2 months
Thanks: 384910 time(s)
Unknown


(IMG:https://metalarea.org/images/audiocovers/2021_Jul/acov_tid353647_thumb.jpg)

*Artist: G'rova
*Album: The Lost Gate
*Year: 2021
*Genre: Heavy/Thrash Metal
*Country: Italy (IMG:https://metalarea.org/forum/style_images/flags/Italy.png)
*Format: mp3@CBR320kbps
*Size: 69MB

Tracklist:
01. Forgotten Things 04:04
02. Fragments of Mind 04:10
03. The Lost Gate 03:00
04. Existence 04:05
05. Archaic Knowledge 04:41
06. Little Spheres 03:21
07. Homesick 03:10
08. The Drown 03:31
******************************
Total playing time: 30:02

(IMG:https://metalarea.org/images/youtube.png)


Technical info
(IMG:https://metalarea.org/images/spectrogram/2021_Jul/5767a03622672e85f39834f801815c4a.png)
Input File: 05 - Archaic Knowledge.mp3
Channels : 2
Sample Rate : 44100
Precision : 16-bit
Duration : 00:04:41.25 = 12403257 samples = 21094 CDDA sectors
File Size : 11.3M
Bit Rate : 320k
Sample Encoding: MPEG audio (layer I, II or III)
Comments :
Title=Archaic Knowledge
Artist=G'Rova
Album=The Lost Gate
Tracknumber=5
Year=2021



Register


Go to the top of the page
  Insert nick Quick quote
+Quote Post

Reply to this topicStart new topic
2 User(s) are reading this topic (2 Guests and 0 Anonymous Users)
0 Members:

 



- Lo-Fi Version Support form
Copyrights and abuse reports form
Time is now: 27th July 2021 - 19:41:43