Welcome Guest ( Log In | Register )

> Releases Upload / Добавление релизов

Добавить релиз тут / Click here to add release
Рекомендованные обменники / Recommended file shares

> Razvalina - Smrt Živečega [ep] (2021), Death Metal
post Jul 21 2021, 19:04:25
Post #1

Правь статус, ####!111
**************
Group: Металариец
Posts: 26,672
Releases: 19234
From: Г.Харьков
On Forums: 9 years 2 months
Thanks: 384917 time(s)
Unknown


(IMG:https://metalarea.org/images/audiocovers/2021_Jul/acov_tid353648_thumb.jpg)

*Artist: Razvalina
*Album: Smrt Živečega [ep]
*Year: 2021
*Genre: Death Metal
*Country: Slovenia (IMG:https://metalarea.org/forum/style_images/flags/Slovenia.png)
*Format: mp3@CBR320kbps
*Size: 52MB

Tracklist:
1. Agresor 03:31
2. Ne pripada 04:18
3. Razvalina 03:24
4. Kužen sistem 04:51
5. Malum 05:51
******************************
Total playing time: 21:55




Extended info
Klemen Ribič Bass
Tani Babuder Drums
Gašper Flere Vocals, Guitars


Technical info
(IMG:https://metalarea.org/images/spectrogram/2021_Jul/edf58bc81117b3406c96967ab2bf9352.png)
Input File: 05 - Malum.mp3
Channels : 2
Sample Rate : 44100
Precision : 16-bit
Duration : 00:05:51.00 = 15479100 samples = 26325 CDDA sectors
File Size : 14.3M
Bit Rate : 327k
Sample Encoding: MPEG audio (layer I, II or III)
Comments :
Title=Malum
Artist=Razvalina
Album=Smrt Živečega
Tracknumber=5
Year=2021-07-15
Genre=Metal
Discnumber=1



Register


Go to the top of the page
  Insert nick Quick quote
+Quote Post
 
Start new topic
Replies (1 - 5)
post Jul 22 2021, 06:53:19
Post #2

Туфлєблек то є файно
**************
Group: Металариец
Posts: 2,436
Releases: 0
From: Україна
On Forums: 12 years 6 months
Thanks: 1996 time(s)
Ukraine


Спасибо дядька, тоже жду этих ребят, на ютубе выдавало, но не было времени.
(IMG:style_emoticons/default/spitggis0.gif) (IMG:style_emoticons/default/metaler.gif) (IMG:style_emoticons/default/9.gif) (IMG:style_emoticons/default/alkash.gif) (IMG:style_emoticons/default/pray.gif)
Надо, надо, надо.


Go to the top of the page
  Insert nick Quick quote
+Quote Post
post Jul 22 2021, 12:46:37
Post #3

Два Литра
**
Group: Завсегдатай
Posts: 100
Releases: 0
From: Калуга
On Forums: 3 years 5 months
Thanks: 35 time(s)
Russian Federation


ЦИТАТА(troll_swamp @ Jul 22 2021, 06:53:19) *
Спасибо дядька, тоже жду этих ребят, на ютубе выдавало, но не было времени.
(IMG:style_emoticons/default/spitggis0.gif) (IMG:style_emoticons/default/metaler.gif) (IMG:style_emoticons/default/9.gif) (IMG:style_emoticons/default/alkash.gif) (IMG:style_emoticons/default/pray.gif)
Надо, надо, надо.

https://www.youtube.com/watch?v=lNQ8wtA_HXA
Go to the top of the page
  Insert nick Quick quote
+Quote Post
post Jul 22 2021, 13:42:15
Post #4

Туфлєблек то є файно
**************
Group: Металариец
Posts: 2,436
Releases: 0
From: Україна
On Forums: 12 years 6 months
Thanks: 1996 time(s)
Ukraine


ЦИТАТА(rominow @ Jul 22 2021, 14:46:37) *

Там и слушаю (IMG:style_emoticons/default/9.gif)
Go to the top of the page
  Insert nick Quick quote
+Quote Post
post Jul 22 2021, 18:51:08
Post #5

кручу наждак
**************
Group: Металариец
Posts: 5,049
Releases: 104
From: Самара
On Forums: 11 years 2 months
Thanks: 4079 time(s)
Russian Federation


Толковые ноунеймы.


Go to the top of the page
  Insert nick Quick quote
+Quote Post
post Jul 25 2021, 13:09:23
Post #6

0%Tolerance
**********
Group: Металариец
Posts: 1,148
Releases: 0
On Forums: 8 years 10 months
Thanks: 205 time(s)
Unknown


Жирно так словены раскачивают.
Go to the top of the page
  Insert nick Quick quote
+Quote Post

Reply to this topicStart new topic
3 User(s) are reading this topic (3 Guests and 0 Anonymous Users)
0 Members:

 



- Lo-Fi Version Support form
Copyrights and abuse reports form
Time is now: 27th July 2021 - 19:56:15