Welcome Guest ( Log In | Register )

> Releases Upload / Добавление релизов

Добавить релиз тут / Click here to add release
Рекомендованные обменники / Recommended file shares

> Arkan Azid - Astralsuizid [ep] (2020), Black/Death Metal/Noise
post Jul 21 2021, 21:29:34
Post #1

Правь статус, ####!616
**************
Group: Металариец
Posts: 6,609
Releases: 5077
From: 55°35’N 38°08’E
On Forums: 13 years 2 weeks
Thanks: 93417 time(s)
Unknown


(IMG:https://metalarea.org/images/audiocovers/2021_Jul/acov_tid353650_thumb.jpg)

*Artist: Arkan Azid
*Album: Astralsuizid [ep]
*Year: 2020
*Genre: Black/Death Metal/Noise
*Country: Germany (IMG:https://metalarea.org/forum/style_images/flags/Germany.png)
*Format: mp3@CBR320kbps
*Size: 44MB

Tracklist:
1. Astralsuizid 03:17
2. Halls of Maliciousness 02:57
3. 666 Blackholes of Triumph 03:21
4. Arkan Azid 03:05
5. Üstün Adam 02:52
******************************
Total playing time: 15:32




Technical info
(IMG:https://metalarea.org/images/spectrogram/2021_Jul/0022551e91e8bf86b48332b38f938001.png)
Input File: 01 ASTRALSUIZID.mp3
Channels : 2
Sample Rate : 44100
Precision : 16-bit
Duration : 00:03:17.08 = 8691272 samples = 14781.1 CDDA sectors
File Size : 8.18M
Bit Rate : 332k
Sample Encoding: MPEG audio (layer I, II or III)
Comments :
Title=ASTRALSUIZID
Artist=ARKAN AZID
Album=ASTRALSUIZID
Tracknumber=1
Year=2020
Genre=Black Metal/Noise



Register


Go to the top of the page
  Insert nick Quick quote
+Quote Post
 
Start new topic
Replies (1 - 2)
post Jul 23 2021, 09:25:12
Post #2

0%Tolerance
**********
Group: Металариец
Posts: 1,142
Releases: 0
On Forums: 8 years 10 months
Thanks: 205 time(s)
Unknown


Грязный подвально-канализационный экспериментальный шум с редкими акцентированными, членораздельными звуками.
Go to the top of the page
  Insert nick Quick quote
+Quote Post
post Today, 17:57:31
Post #3

0%Tolerance
**********
Group: Металариец
Posts: 1,142
Releases: 0
On Forums: 8 years 10 months
Thanks: 205 time(s)
Unknown


После второго раза (моё сообщение выше подтёрли какого-то хрена и укоротили его вдвое, так что смысл постксриптума будет не совсем ясен; ну да по хер), однако, хочется "обазаться" этим снова. Был не прав. Отличная экспериментальная работа.
Go to the top of the page
  Insert nick Quick quote
+Quote Post

Reply to this topicStart new topic
2 User(s) are reading this topic (2 Guests and 0 Anonymous Users)
0 Members:

 



- Lo-Fi Version Support form
Copyrights and abuse reports form
Time is now: 25th July 2021 - 23:44:37