Welcome Guest ( Log In | Register )

> Releases Upload / Добавление релизов

Добавить релиз тут / Click here to add release
Рекомендованные обменники / Recommended file shares

> Cauldron Born - Legacy Of Atlantean Kings (2021), Epic Heavy/Power Metal
post Jul 21 2021, 22:07:10
Post #1

Правь статус, ####!111
**************
Group: Металариец
Posts: 26,661
Releases: 19228
From: Г.Харьков
On Forums: 9 years 2 months
Thanks: 384647 time(s)
Unknown


(IMG:https://metalarea.org/images/audiocovers/2021_Jul/acov_tid353651_thumb.jpg)

*Artist: Cauldron Born
*Album: Legacy Of Atlantean Kings
*Year: 2021
*Genre: Epic Heavy/Power Metal
*Country: United States (IMG:https://metalarea.org/forum/style_images/flags/United%20States.png)
*Format: mp3@CBR320kbps
*Size: 116MB

Tracklist:
1. Bloodbath in the Arena 05:40
2. Storming the Castle 07:18
3. Dragon Throne 05:36
4. People of the Dark Circle 06:57
5. Clontarf 04:04
6. Finder of the Black Stone 06:18
7. ...And Rome Shall Fall 06:53
8. By This Axe I Rule 08:23
******************************
Total playing time: 51:09




Extended info
Shawn Kascak Bass (1994-2003, 2021-present)
See also: ex-Outworld, ex-Eumeria, ex-Gothic Outcasts
Bill Parsons Drums (1994-2003, 2021-present)
Howie Bentley Guitars (1994-2003, 2012-2015, 2021-present)
See also: Briton Rites, ex-Howie Bentley
Alex Parra Guitars (2012-2015, 2021-present)
See also: Paladin, Sadistic Ritual, ex-Night's Watch, ex-The Fury, Gunpowder Gray, ex-Sybaritic
Matthew Knight Vocals (2021-present)
See also: Eternal Winter



Technical info
(IMG:https://metalarea.org/images/spectrogram/2021_Jul/e3a868d1aa6a877cbb05f8bb74192c11.png)
Input File: 02 - Storming the Castle.mp3
Channels : 2
Sample Rate : 44100
Precision : 16-bit
Duration : 00:07:18.27 = 19327663 samples = 32870.2 CDDA sectors
File Size : 17.5M
Bit Rate : 320k
Sample Encoding: MPEG audio (layer I, II or III)
Comments :
Title=Storming the Castle
Artist=Cauldron Born
Album=Legacy of Atlantean Kings
Tracknumber=2
Year=2021
Genre=Metal



Register


Go to the top of the page
  Insert nick Quick quote
+Quote Post
 
Start new topic
Replies (1 - 2)
post Jul 22 2021, 07:30:41
Post #2

Маньяк
**********
Group: Металариец
Posts: 1,317
Releases: 0
From: Moscow
On Forums: 13 years 8 months
Thanks: 827 time(s)
Russian Federation


Не успел наслушаться штатовским Фараоном, а тут уже очередной претендент на попадание в топы амеропавера за этот год.
Для любителей пресловутого USPM проходить мимо противопоказано.


Go to the top of the page
  Insert nick Quick quote
+Quote Post
post Jul 23 2021, 11:31:26
Post #3

Пять Литров
*****
Group: Металариец
Posts: 488
Releases: 0
From: Москва
On Forums: 14 years 9 months
Thanks: 110 time(s)
Russian Federation


Вокалист дерет с Дикинсона все, что осиливает, особой эпичности не заметил. По мне - стандартный непритязательный хэви/пауэр.


Go to the top of the page
  Insert nick Quick quote
+Quote Post

Reply to this topicStart new topic
1 User(s) are reading this topic (1 Guests and 0 Anonymous Users)
0 Members:

 



- Lo-Fi Version Support form
Copyrights and abuse reports form
Time is now: 26th July 2021 - 00:01:39