Welcome Guest ( Log In | Register )

> Releases Upload / Добавление релизов

Добавить релиз тут / Click here to add release
Рекомендованные обменники / Recommended file shares

> Satanis Maleficarum - Bajo El Culto Maldito [demo] (2021), Black Metal
post Jul 21 2021, 22:27:42
Post #1

Правь статус, ####!616
**************
Group: Металариец
Posts: 6,609
Releases: 5077
From: 55°35’N 38°08’E
On Forums: 13 years 2 weeks
Thanks: 93419 time(s)
Unknown


(IMG:https://metalarea.org/images/audiocovers/2021_Jul/acov_tid353652_thumb.jpg)

*Artist: Satanis Maleficarum
*Album: Bajo El Culto Maldito [demo]
*Year: 2021
*Genre: Black Metal
*Country: Ecuador (IMG:https://metalarea.org/forum/style_images/flags/Ecuador.png)
*Format: mp3@CBR320kbps
*Size: 45MB

Tracklist:
1.Intro 00:51
2.Bajo el Culto Maldito Consagro mi sangre a Lucifer. Hail Satanis Maleficarum! 06:53
3.Perversidad, Pecado y Lujuria. La malignidad Eterna 06:31
4.From Hateful Visions (Judas Iscariot cover) 05:19
******************************
Total playing time: 19:34




Technical info
(IMG:https://metalarea.org/images/spectrogram/2021_Jul/49303e7c603be881f93103c7311aa52e.png)
Input File: 02 Bajo el culto maldito consagro mi sangre a Lucifer Hail Satanis Maleficarum !!!.mp3
Channels : 2
Sample Rate : 44100
Precision : 16-bit
Duration : 00:06:53.15 = 18220003 samples = 30986.4 CDDA sectors
File Size : 16.6M
Bit Rate : 321k
Sample Encoding: MPEG audio (layer I, II or III)
Comments :
Title=Bajo el culto maldito consagro mi sangre a Lucifer Hail Satanis Maleficarum !!!
Artist=SATANIS MALEFICARUM
Album=Bajo el Culto Maldito - Reedicion MMXXI
Tracknumber=2
Year=2021
Genre=Black Metal



Register


Go to the top of the page
  Insert nick Quick quote
+Quote Post
 
Start new topic
Replies (1 - 3)
post Jul 24 2021, 03:13:08
Post #2

Group: Подсевший
Posts: 23
Releases: 0
On Forums: 1 week 4 days
Thanks: 8 time(s)
Unknown


это не демо 2021 smysl. это переиздание promo 2007 с добавлением треков intro и кавера на JI. 15 года могу поделиться если послушать кто захочет.


Go to the top of the page
  Insert nick Quick quote
+Quote Post
post Jul 24 2021, 17:28:21
Post #3

While Waiting the Worms
**********
Group: Металариец
Posts: 1,334
Releases: 0
On Forums: 7 years 7 months
Thanks: 2018 time(s)
Unknown


Отличная промка, а для дебюта так вообще шик и блеск!
Злобная, ядовитая блэчина в лучшем виде, исполненная в несколько нетипичной форме для латиносов, стафф больше европейский по звучанию.

Затем ознакомился с его другими работами - часть послушал, часть пролистал.
А вот там уже явно ощущается южноамериканская принадлежность, более угловатый материал с неочевидными и не всегда хорошими мелодиями и решениями.
И впечатления у меня похуже от них.
Go to the top of the page
  Insert nick Quick quote
+Quote Post
post Jul 24 2021, 18:16:09
Post #4

Два Литра
**
Group: Завсегдатай
Posts: 103
Releases: 0
On Forums: 3 months 4 days
Thanks: 29 time(s)
Unknown


Чо за муть.играет.Молиться вправо или назад , когда водку запракидываю.
Go to the top of the page
  Insert nick Quick quote
+Quote Post

Reply to this topicStart new topic
1 User(s) are reading this topic (1 Guests and 0 Anonymous Users)
0 Members:

 



- Lo-Fi Version Support form
Copyrights and abuse reports form
Time is now: 26th July 2021 - 00:16:50