Welcome Guest ( Log In | Register )

> Releases Upload / Добавление релизов

Добавить релиз тут / Click here to add release
Рекомендованные обменники / Recommended file shares

> Gotmoor - Zonderlingen (2021), Black Metal (D)
post Jul 21 2021, 23:25:52
Post #1

Правь статус, ####!616
**************
Group: Металариец
Posts: 6,614
Releases: 5083
From: 55°35’N 38°08’E
On Forums: 13 years 2 weeks
Thanks: 93557 time(s)
Unknown


(IMG:https://metalarea.org/images/audiocovers/2021_Jul/acov_tid353653_thumb.jpg)

*Artist: Gotmoor
*Album: Zonderlingen
*Year: 2021
*Genre: Black Metal
*Country: Belgium (IMG:https://metalarea.org/forum/style_images/flags/Belgium.png)
*Format: mp3@CBR320kbps
*Size: 99MB

Tracklist:
1.Gefluister des Duister 05:07
2.Tanneke Sconynckx 04:56
3.Land van Niets 03:57
4.Den Schimmenganger 04:03
5.Aradia's Geheim 04:00
6.Eibor Neevik 06:48
7.Verheft het Vaandel 05:39
8.Eeuwige Winter 03:37
9.Pagus Flandrensis 04:51
******************************
Total playing time: 42:58




Technical info
(IMG:https://metalarea.org/images/spectrogram/2021_Jul/93d947c0ce5043edf8f6fc8d2a3f35e0.png)
Input File: 01 Gefluister des Duister.mp3
Channels : 2
Sample Rate : 44100
Precision : 16-bit
Duration : 00:05:07.32 = 13552988 samples = 23049.3 CDDA sectors
File Size : 12.4M
Bit Rate : 322k
Sample Encoding: MPEG audio (layer I, II or III)
Comments :
Title=Gefluister des Duister
Artist=Gotmoor
Album=Zonderlingen
Tracknumber=1
Year=2021
Genre=Black Metal



Register


Go to the top of the page
  Insert nick Quick quote
+Quote Post
 
Start new topic
Replies (1 - 6)
post Jul 22 2021, 07:32:31
Post #2

my church is black
**********
Group: Металариец
Posts: 1,084
Releases: 4
On Forums: 4 years 1 month
Thanks: 746 time(s)
Bhutan


клон Бельфегора, не моё
Go to the top of the page
  Insert nick Quick quote
+Quote Post
post Jul 22 2021, 12:30:39
Post #3

спиногрыз-кровосос
*****
Group: Металариец
Posts: 407
Releases: 0
On Forums: 12 years 6 months
Thanks: 70 time(s)
Russian Federation


ЦИТАТА(Krosis @ 22nd July 2021 - 09:32:31) *
клон Бельфегора, не моё

причем довольно унылый
Go to the top of the page
  Insert nick Quick quote
+Quote Post
post Jul 22 2021, 13:51:28
Post #4

Маньяк
**********
Group: Металариец
Posts: 1,279
Releases: 37
From: великий город Питер
On Forums: 15 years 7 months
Thanks: 2134 time(s)
Russian Federation


ЦИТАТА(Krosis @ Jul 22 2021, 09:32:31) *
клон Бельфегора, не моё

вообще ничего общего (IMG:style_emoticons/default/smile1.gif)


Thanks:
Go to the top of the page
  Insert nick Quick quote
+Quote Post
post Jul 25 2021, 06:32:16
Post #5

Два Литра
**
Group: Завсегдатай
Posts: 105
Releases: 0
From: Euskadi
On Forums: 3 years 2 months
Thanks: 8 time(s)
Spain


Thanks
Go to the top of the page
  Insert nick Quick quote
+Quote Post
post Jul 25 2021, 07:56:13
Post #6

Два Литра
**
Group: Завсегдатай
Posts: 105
Releases: 0
From: Euskadi
On Forums: 3 years 2 months
Thanks: 8 time(s)
Spain


Thanks
Go to the top of the page
  Insert nick Quick quote
+Quote Post
post Jul 25 2021, 14:27:33
Post #7

Шесть Литров
******
Group: Металариец
Posts: 561
Releases: 0
From: Лыткарино
On Forums: 2 years 2 months
Thanks: 145 time(s)
Russian Federation


Невнятно звучит как-то. По мелодиям иногда что-то хорошее проскакивает, но здорово забито стеной звука.
Go to the top of the page
  Insert nick Quick quote
+Quote Post

Reply to this topicStart new topic
2 User(s) are reading this topic (2 Guests and 0 Anonymous Users)
0 Members:

 



- Lo-Fi Version Support form
Copyrights and abuse reports form
Time is now: 27th July 2021 - 20:01:39