Welcome Guest ( Log In | Register )

> Releases Upload / Добавление релизов

Добавить релиз тут / Click here to add release
Рекомендованные обменники / Recommended file shares

> Asylum - Sharpen (2021), Progressive/Technical Death Metal (D)
post Jul 22 2021, 02:01:00
Post #1

Правь статус, ####!111
**************
Group: Металариец
Posts: 26,661
Releases: 19228
From: Г.Харьков
On Forums: 9 years 2 months
Thanks: 384651 time(s)
Unknown


(IMG:https://metalarea.org/images/audiocovers/2021_Jul/acov_tid353654_thumb.jpg)

*Artist: Asylum
*Album: Sharpen
*Year: 2021
*Genre: Progressive/Technical Death Metal
*Country: United States (IMG:https://metalarea.org/forum/style_images/flags/United%20States.png)
*Format: mp3@CBR320kbps
*Size: 176MB

Tracklist:
1. Coincidence 04:52
2. Fluoride Stare 04:23
3. Hard Times Ahead 04:54
4. Peripheral Inklings 04:39
5. Bite the Guiding Hand 10:54
6. Whispering Ibex 04:50
7. To Define and Divide 08:07
8. Cerebellar Atrophy 04:28
9. Without Question 07:25
10. In Ossein Ecstasy 04:08
11. Ego Mortuus Est 06:50
12. Ave Lamentum 03:40
13. Sharpen 11:13
******************************
Total playing time: 1:20:23





Extended info
Carlos Alonzo Gallegos Bass
See also: ex-Astyanax
Andrew "Patches" Huff Drums
See also: Sworn to the Sword, ex-Fenris, ex-Astyanax
Jonathan Hatley Guitars
Trey Hepfer Guitars
See also: ex-Krucifix
Colby Rodgers Vocals (2012-present)
See also: Blasphemous Goat Vomit, Coprolalia, ex-Astyanax, ex-Judas Goat, ex-Exalt the Throne, ex-Lucifer Invictus, ex-Persecution Complex, ex-Accidental Incest (live)



Technical info
(IMG:https://metalarea.org/images/spectrogram/2021_Jul/da5edcade69eb4eb6d50dd2b310c632d.png)
Input File: 09 - Without Question.mp3
Channels : 2
Sample Rate : 44100
Precision : 16-bit
Duration : 00:07:25.00 = 19624500 samples = 33375 CDDA sectors
File Size : 18.0M
Bit Rate : 323k
Sample Encoding: MPEG audio (layer I, II or III)
Comments :
Title=Without Question
Artist=Asylum
Album=Sharpen
Tracknumber=9
Year=2021-07-22
Genre=Metal
Discnumber=1



Register


Go to the top of the page
  Insert nick Quick quote
+Quote Post
 
Start new topic
Replies (1 - 2)
post Jul 22 2021, 15:15:46
Post #2

практики шума одухотворяющего
**************
Group: Металариец
Posts: 2,998
Releases: 80
On Forums: 3 years 6 months
Thanks: 3776 time(s)
Russian Federation




При такой сильной гитарной работе - кощунство сожрать гитарный звук беспонтовой пластиковой ударкой. Красивый навороченный мелодик.
Go to the top of the page
  Insert nick Quick quote
+Quote Post
post Jul 23 2021, 14:43:46
Post #3

Old School Metal
**************
Group: Металариец
Posts: 3,950
Releases: 0
From: г. Минск
On Forums: 12 years 4 months
Thanks: 9266 time(s)
Belarus


Lossless: FLAC (tracks)
Register


Go to the top of the page
  Insert nick Quick quote
+Quote Post

Reply to this topicStart new topic
2 User(s) are reading this topic (2 Guests and 0 Anonymous Users)
0 Members:

 



- Lo-Fi Version Support form
Copyrights and abuse reports form
Time is now: 26th July 2021 - 00:39:23