Welcome Guest ( Log In | Register )

> Releases Upload / Добавление релизов

Добавить релиз тут / Click here to add release
Рекомендованные обменники / Recommended file shares

> Omnivorous - Omnivorous (2021), Brutal Death Metal
post Jul 22 2021, 02:24:24
Post #1

Правь статус, ####!111
**************
Group: Металариец
Posts: 26,661
Releases: 19228
From: Г.Харьков
On Forums: 9 years 2 months
Thanks: 384603 time(s)
Unknown


(IMG:https://metalarea.org/images/audiocovers/2021_Jul/acov_tid353655_thumb.jpg)

*Artist: Omnivorous
*Album: Omnivorous
*Year: 2021
*Genre: Brutal Death Metal
*Country: Indonesia (IMG:https://metalarea.org/forum/style_images/flags/Indonesia.png)
*Format: mp3@CBR320kbps
*Size: 75MB

Tracklist:
1. The Undone Garden of Janus
2. Prologue to Rodin in Rime
3. The Dumb
4. Hymn to Lux
5. Liturgy of Dilapidation
6. Purification of the Lost Manuscript
7. Evolving Prosthetic Asphyxiation
8. An Oath
9. The Wizard Way
******************************
Total playing time: 32:18




Extended info
Denny Yurio Andimas Guitars (2012-present)
See also: Abhira, ex-Gemeinschaft by Blood, ex-Karnak, ex-Social Black Yelling
Januaryo Hardy Vocals (2015-2019, 2020-present)
See also: Bloodriven, Cadavoracity, Insolence, Lament, Perverted Dexterity, Pure Wrath, Urged, Interfectorment (live), Excruciation, Wept, ex-Abonation, ex-Infested Flesh, ex-Vomit Larynx
Ibrahim Aziz Bass (2020-present)
See also: Abhira, Apoteoza, Catastrophe, ex-Gemeinschaft by Blood, ex-Jail
Amransyah Decol Drums (2020-present)
See also: ex-Nicrov, ex-Radical Artery


Technical info
(IMG:https://metalarea.org/images/spectrogram/2021_Jul/3dbe66951aca21a15f1a51b4bc15e58d.png)
Input File: 07 - Evolving Prosthetic Asphyxiation.mp3
Channels : 2
Sample Rate : 44100
Precision : 16-bit
Duration : 00:04:25.00 = 11686500 samples = 19875 CDDA sectors
File Size : 10.7M
Bit Rate : 324k
Sample Encoding: MPEG audio (layer I, II or III)
Comments :
Title=Evolving Prosthetic Asphyxiation
Artist=Omnivorous
Album=Omnivorous
Tracknumber=7
Year=2021-07-20
Genre=Metal
Discnumber=1



Register


Go to the top of the page
  Insert nick Quick quote
+Quote Post
 
Start new topic
Replies (1 - 7)
post Jul 22 2021, 14:38:57
Post #2

кручу наждак
**************
Group: Металариец
Posts: 5,048
Releases: 104
From: Самара
On Forums: 11 years 2 months
Thanks: 4079 time(s)
Russian Federation


Omnivorous - V Rot Mne Nogi (2021), Brutal Death Metal


Thanks:
Go to the top of the page
  Insert nick Quick quote
+Quote Post
post Jul 22 2021, 15:13:07
Post #3

Чёткий пацан из Автово...
Group Icon
Group: V.I.P
Posts: 9,348
Releases: 40
From: Город над вольной Невой...
On Forums: 15 years 1 month
Thanks: 4818 time(s)
Russian Federation


А кстати по прослушке очень годно! (IMG:style_emoticons/default/smile3.gif)
Go to the top of the page
  Insert nick Quick quote
+Quote Post
post Yesterday, 12:22:32
Post #4

Литр
*
Group: Подсевший
Posts: 59
Releases: 0
On Forums: 11 years 8 months
Thanks: 19 time(s)
Unknown


Слабовато. Мало мощи. Намного хуже, чем Sewage - Embracing the Splendid Rancidity, Soul of Slamming - Rekonstruksi Dogma
Go to the top of the page
  Insert nick Quick quote
+Quote Post
post Yesterday, 21:20:27
Post #5

Group: Подсевший
Posts: 20
Releases: 0
On Forums: 1 year 5 months
Thanks: 13 time(s)
Czech Republic


Did brutal death metal become the new official religion in Indonesia? So many bands...
Go to the top of the page
  Insert nick Quick quote
+Quote Post
post Yesterday, 23:24:06
Post #6

Самый Тихий Час
**************
Group: Металариец
Posts: 6,479
Releases: 6
On Forums: 11 years 8 months
Thanks: 3039 time(s)
Unknown


ЦИТАТА(Anarhist815 @ 24th July 2021 - 14:22:32) *
Слабовато. Мало мощи. Намного хуже, чем Sewage - Embracing the Splendid Rancidity, Soul of Slamming - Rekonstruksi Dogma

опять шишка не вскочила?

по альбому - не слушал и не тянет.
Go to the top of the page
  Insert nick Quick quote
+Quote Post
post Today, 01:37:40
Post #7

Литр
*
Group: Подсевший
Posts: 59
Releases: 0
On Forums: 11 years 8 months
Thanks: 19 time(s)
Unknown


ЦИТАТА(Chasm @ Jul 25 2021, 01:24:06) *
опять шишка не вскочила?

Да, не встает((
На этой планете не хотят больше делать жирный и быстрый брутал.
Go to the top of the page
  Insert nick Quick quote
+Quote Post
post Today, 07:11:13
Post #8

Group: Дух
Posts: 5
Releases: 0
On Forums: 1 week 4 days
Thanks: 2 time(s)
Unknown


ЦИТАТА(Anarhist815 @ 25th July 2021 - 01:37:40) *
На этой планете не хотят больше делать жирный и быстрый брутал.

Хотят, только почему-то меньше, чем в прошлом году, и в основном не в Индонезии, а в иных адовых ибенях
Undeciphered - Beneath The Gentle Smile (2021)
Anal Stabwound - The Visceral Sovereign (2021)
Эти два просто убийственны по тяжести и плотности, пока лучшие в году
Ну и еще:
Biomorphic Engulfment - Incubation In The Parallel Dimension (2021) - звучат похоже на Brodequin
Gore Dimension - Ethereal Realm (2021) - олдскул, как Suffocation
Decortication - My Knife Is Still In Good Order (2021)
Perverted Dexterity - Alacrity For Contemptuous Dissonance (2021) (единственный из тонны говна из Индонезии в этом году, который понравился)
Go to the top of the page
  Insert nick Quick quote
+Quote Post

Reply to this topicStart new topic
1 User(s) are reading this topic (1 Guests and 0 Anonymous Users)
0 Members:

 



- Lo-Fi Version Support form
Copyrights and abuse reports form
Time is now: 25th July 2021 - 22:22:01