Welcome Guest ( Log In | Register )

 
Reply to this topicStart new topic
> Morgenröthe - Morgenröthe [ep] (2020), Post-Black Metal
post Jul 22 2021, 07:33:20
Post #1

KPN 666
**************
Group: Металариец
Posts: 2,730
Releases: 1316
From: Тегеран
On Forums: 12 years 2 months
Thanks: 18924 time(s)
Iran


(IMG:http://metalarea.org/images/audiocovers/2021_Jul/acov_tid353658_thumb.jpg)

*Artist: Morgenröthe
*Album: Morgenröthe [ep]
*Year: 2020
*Genre: Post-Black Metal
*Country: Germany (IMG:http://metalarea.org/forum/style_images/flags/Germany.png)
*Format: mp3@CBR320kbps
*Size: 72MB

Tracklist:
01. Morgenröthe
02. Song II (Das letzte Problem)
03. Outre Monde
04. IVxII
05. Jinshin Jiko
06. Épilogue: Derniers Fragments
******************************
Total playing time: 31:27

Technical info
(IMG:http://metalarea.org/images/spectrogram/2021_Jul/a8a80cd7c1054df08bc81819429e2fb5.png)
Input File: 02. Song II (Das letzte Problem).mp3
Channels : 2
Sample Rate : 44100
Precision : 16-bit
Duration : 00:00:00.23 = 10011 samples = 17.0255 CDDA sectors
File Size : 9.24M
Bit Rate : 326M
Sample Encoding: MPEG audio (layer I, II or III)
Comments :
Title=Song II (Das letzte Problem)
Artist=Morgenröthe
Album=Morgenröthe
Tracknumber=2
Year=2020-09-16
Genre=Metal
Discnumber=1



Register


Go to the top of the page
  Insert nick Quick quote
+Quote Post

Reply to this topicStart new topic
1 User(s) are reading this topic (1 Guests and 0 Anonymous Users)
0 Members:

 



- Lo-Fi Version Support form
Copyrights and abuse reports form
Time is now: 16th September 2021 - 22:44:38