Welcome Guest ( Log In | Register )

> Mordred - The Dark Parade (2021), Thrash Metal/Funk (D)
post Jul 22 2021, 11:25:51
Post #1

Правь статус, ####!111
**************
Group: Металариец
Posts: 27,429
Releases: 19912
From: Г.Харьков
On Forums: 9 years 4 months
Thanks: 401546 time(s)
Unknown


(IMG:https://metalarea.org/images/audiocovers/2021_Jul/acov_tid353664_thumb.jpg)

*Artist: Mordred
*Album: The Dark Parade
*Year: 2021
*Genre: Thrash Metal/Funk
*Country: United States (IMG:https://metalarea.org/forum/style_images/flags/United%20States.png)
*Format: mp3@CBR320kbps
*Size: 92MB

Tracklist:
1. Demonic #7 03:25
2. Malignancy 03:51
3. I Am Charlie 04:29
4. Dragging for Bodies 06:08
5. The Dark Parade 06:47
6. All Eyes on the Prize 05:21
7. Dented Lives 04:31
8. Smash Goes the Bottle 04:54
******************************
Total playing time: 39:26




Extended info
Arthur Liboon Bass (1984-1995, 2001-2007, 2013-present)
See also: ex-Mercenary (live)
James Sanguinetti Guitars (1986-1995, 2001-2007, 2013-present)
See also: ex-Heathen, ex-Mercenary (live)
Danny White Guitars (1986-1995, 2013-present)
See also: ex-Mercenary, ex-Machen Assault, ex-Sacrifice, ex-Savage Angel
Scott Holderby Vocals (1986-1993, 2001-2007, 2013-present)
See also: The Hi Nobles
Gannon Hall Drums (1987-1995, 2013-present)
See also: ex-Exodus (live), ex-Mercenary (live)
Aaron 'DJ Pause' Vaughn Keyboards, Turntables (1990-1995, 2001-2007, 2013-present)


Technical info
(IMG:https://metalarea.org/images/spectrogram/2021_Jul/e903c9e21d53a26e8d94936ce78ebd97.png)
Input File: 07 - Dented Lives.mp3
Channels : 2
Sample Rate : 44100
Precision : 16-bit
Duration : 00:04:31.00 = 11951100 samples = 20325 CDDA sectors
File Size : 11.0M
Bit Rate : 326k
Sample Encoding: MPEG audio (layer I, II or III)
Comments :
Title=Dented Lives
Artist=mordred
Album=The Dark Parade
Tracknumber=7
Year=2021-07-23
Genre=Metal
Discnumber=1



Register


Go to the top of the page
  Insert nick Quick quote
+Quote Post
 
Start new topic
Replies (1 - 6)
post Jul 25 2021, 05:00:48
Post #2

Маньяк
**********
Group: Металариец
Posts: 1,005
Releases: 0
From: China
On Forums: 13 years 8 months
Thanks: 767 time(s)
Bulgaria


starts pretty strong with the first three tracks which are very comparable to their early output, brisk semi-technical thrashers; but loses steam later with longer softer compositions where progressive metal and rock fight for domination with mixed results. Decidedly better than the preceding "Volition" demo and their last full-length "The Next Room", but still far from their finest hour.


Go to the top of the page
  Insert nick Quick quote
+Quote Post
post Jul 25 2021, 08:21:05
Post #3

Common dweller of hell
**************
Group: Металариец
Posts: 4,012
Releases: 12
From: Dnipro
On Forums: 13 years 2 months
Thanks: 1566 time(s)
Ukraine


Деды навоевали (IMG:style_emoticons/default/25.gif)


Thanks:
Go to the top of the page
  Insert nick Quick quote
+Quote Post
post Jul 25 2021, 14:24:14
Post #4

Шесть Литров
******
Group: Металариец
Posts: 596
Releases: 0
From: Лыткарино
On Forums: 2 years 4 months
Thanks: 153 time(s)
Russian Federation


Так себе, баловство.
Go to the top of the page
  Insert nick Quick quote
+Quote Post
post Jul 26 2021, 05:26:27
Post #5

Шесть Литров
******
Group: Металариец
Posts: 505
Releases: 0
From: Ташкент
On Forums: 13 years 7 months
Thanks: 161 time(s)
Uzbekistan


А дайте flac пожалуйста!
Go to the top of the page
  Insert nick Quick quote
+Quote Post
post Aug 18 2021, 18:47:58
Post #6

21st Century Schizoid Man
**************
Group: Металариец
Posts: 6,941
Releases: 84
From: Pdmsk
On Forums: 13 years 4 months
Thanks: 5849 time(s)
Russian Federation


Пропустил чёто их прошлогоднюю ипишку, которая была выпущена спустя 26 лет после выхода последнего полноформатника (!).
Go to the top of the page
  Insert nick Quick quote
+Quote Post
post Aug 18 2021, 19:41:02
Post #7

Groove/Industrial/Aggressive Nu Metal
**************
Group: Металариец
Posts: 2,646
Releases: 65
From: Technical Death из 90-х
On Forums: 11 years 2 months
Thanks: 6451 time(s)
Unknown


А недурно так! Качаем для подробного ознакомления!

(IMG:style_emoticons/default/20.gif)
Go to the top of the page
  Insert nick Quick quote
+Quote Post

Reply to this topicStart new topic
2 User(s) are reading this topic (2 Guests and 0 Anonymous Users)
0 Members:

 



- Lo-Fi Version Support form
Copyrights and abuse reports form
Time is now: 25th September 2021 - 01:06:49