Welcome Guest ( Log In | Register )

> Cavern Deep - Cavern Deep (2021), Doom Metal
post Jul 22 2021, 15:01:42
Post #1

Правь статус, ####!111
**************
Group: Металариец
Posts: 28,192
Releases: 20585
From: Г.Харьков
On Forums: 9 years 6 months
Thanks: 419496 time(s)
Unknown


(IMG:https://metalarea.org/images/audiocovers/2021_Jul/acov_tid353678_thumb.jpg)

*Artist: Cavern Deep
*Album: Cavern Deep
*Year: 2021
*Genre: Doom Metal
*Country: Sweden (IMG:https://metalarea.org/forum/style_images/flags/Sweden.png)
*Format: mp3@CBR320kbps
*Size: 101MB

Tracklist:
1. Staring Down
2. Abandoned Quarters
3. Ominous Gardens
4. Waterways
5. Leap of Faith
6. Deeper Grounds
7. Fungal Realm
8. The Dark Place
******************************
Total playing time: 44:09




Extended info
Max Malmer Bass, Vocals
See also: Folkmord, Zonaria, ex-Apocalyst, Dead Ol Chaps, ex-Death Maze
Dennis Sjödin Drums
Kenny Oswald Dufvenberg Vocals, Guitars
See also: Gudars Skymning


Technical info
(IMG:https://metalarea.org/images/spectrogram/2021_Jul/d69789fe27fb5ebd328c51cab4d02997.png)
Input File: 07 - Fungal Realm.mp3
Channels : 2
Sample Rate : 44100
Precision : 16-bit
Duration : 00:07:58.00 = 21079800 samples = 35850 CDDA sectors
File Size : 19.2M
Bit Rate : 321k
Sample Encoding: MPEG audio (layer I, II or III)
Comments :
Title=Fungal Realm
Artist=Cavern Deep
Album=Cavern Deep
Tracknumber=7
Year=2021-07-23
Genre=Metal
Discnumber=1



Register


Go to the top of the page
  Insert nick Quick quote
+Quote Post
 
Start new topic
Replies (1 - 1)
post Jul 31 2021, 18:42:17
Post #2

королева бала
********
Group: Металариец
Posts: 816
Releases: 0
On Forums: 14 years 7 months
Thanks: 578 time(s)
Russian Federation


Интересный альбом, советую копнуть))


Thanks:
(1) Lux,
Go to the top of the page
  Insert nick Quick quote
+Quote Post

Reply to this topicStart new topic
2 User(s) are reading this topic (2 Guests and 0 Anonymous Users)
0 Members:

 



- Lo-Fi Version Support form
Copyrights and abuse reports form
Time is now: 8th December 2021 - 11:45:26