Welcome Guest ( Log In | Register )

 
Reply to this topicStart new topic
> Morbus - Live In Space [live] (2000), Death Metal (D)
post Jul 22 2021, 22:55:49
Post #1

Подвал
**************
Group: Металариец
Posts: 16,425
Releases: 9386
From: Far East (Khabarovsk)
On Forums: 12 years 8 months
Thanks: 106814 time(s)
Russian Federation


(IMG:http://metalarea.org/images/audiocovers/2021_Jul/acov_tid353694_thumb.jpg)

*Artist: Morbus
*Album: Live In Space [live]
*Year: 2000
*Genre: Death Metal
*Country: Italy (IMG:http://metalarea.org/forum/style_images/flags/Italy.png)
*Format: mp3@CBR192kbps
*Size: 49MB

Tracklist:
1. From The Sky... 02:48
2. Afterglows 05:43
3. L.M.D. 04:49
4. Hope Of Life 03:19
5. Abduction 04:12
6. Infinitesimality 03:45
7. Under Two Suns 03:29
8. Devoid Of Soul 02:40
9. Sin Alma 02:40
10. § 02:18
******************************
Total playing time: 35:43

Extended info
Tracks 1 to 5 recorded live in September; Tuesday 8th 1998 at the 3 days festival called "Energia Rock" in Maarmirolo (Mantua, Italy) with the old line-up.
Tracks 6 to 8 recorded live in July, Saturday 24th 1999 at the 2 days Metal Festival called "Emilian Revenge" in San Martino (Reggio Emilia, Italy) with the new members.
Tracks 9 & 10 are Bonus Tracks.


Technical info
(IMG:http://metalarea.org/images/spectrogram/2021_Jul/6728861d4eb6a4d5147b49aa40aa8e6a.png)
Input File: 01-From the Sky....mp3
Channels : 2
Sample Rate : 44100
Precision : 16-bit
Duration : 00:02:47.19 = 7373255 samples = 12539.5 CDDA sectors
File Size : 4.01M
Bit Rate : 192k
Sample Encoding: MPEG audio (layer I, II or III)
Comments :
Title=From the Sky...
Artist=Morbus (Ita)
Album=Live In Space
Tracknumber=01
Year=2000
Genre=Death Metal



Register


Go to the top of the page
  Insert nick Quick quote
+Quote Post

Reply to this topicStart new topic
1 User(s) are reading this topic (1 Guests and 0 Anonymous Users)
0 Members:

 



- Lo-Fi Version Support form
Copyrights and abuse reports form
Time is now: 23rd October 2021 - 22:22:57