Welcome Guest ( Log In | Register )

 
Reply to this topicStart new topic
> Silent - Silent [demo] (1994), Thrash Metal/Hardcore
post Jul 23 2021, 09:43:01
Post #1

Подвал
**************
Group: Металариец
Posts: 16,428
Releases: 9389
From: Far East (Khabarovsk)
On Forums: 12 years 9 months
Thanks: 106892 time(s)
Russian Federation


(IMG:http://metalarea.org/images/audiocovers/2021_Jul/acov_tid353702_thumb.jpg)

*Artist: Silent
*Album: Silent [demo]
*Year: 1994
*Genre: Thrash Metal/Hardcore
*Country: Norway (IMG:http://metalarea.org/forum/style_images/flags/Norway.png)
*Format: mp3@CBR128kbps (IMG:http://metalarea.org/images/bit_low.gif)
*Size: 31MB

Tracklist:
1. Mr. Winter 06:48
2. Knowledge About Nothing 07:35
3. Could 04:09
4. The Clear Ice 06:48
5. How Much Further 05:19
6. Prevent 05:04
******************************
Total playing time: 35:43

Extended info
Recorded Jinglefabrikken, July 1994.


Technical info
(IMG:http://metalarea.org/images/spectrogram/2021_Jul/2ba48e3a5a2963a9e203eb87a134ddc9.png)
Input File: 01-Mr. Winter.mp3
Channels : 2
Sample Rate : 44100
Precision : 16-bit
Duration : 00:06:20.18 = 16765806 samples = 28513.3 CDDA sectors
File Size : 6.08M
Bit Rate : 128k
Sample Encoding: MPEG audio (layer I, II or III)
Comments :
Title=Mr. Winter
Artist=Silent (Nor)
Album=Silent (Demo)
Tracknumber=01
Year=1994
Genre=Thrash Metal



Register


Go to the top of the page
  Insert nick Quick quote
+Quote Post

Reply to this topicStart new topic
1 User(s) are reading this topic (1 Guests and 0 Anonymous Users)
0 Members:

 



- Lo-Fi Version Support form
Copyrights and abuse reports form
Time is now: 28th October 2021 - 22:34:18