Welcome Guest ( Log In | Register )

 
Reply to this topicStart new topic
> Critical Damage - Critical Damage (2000), Thrash Metal
post Jul 23 2021, 10:09:44
Post #1

Подвал
**************
Group: Металариец
Posts: 16,428
Releases: 9389
From: Far East (Khabarovsk)
On Forums: 12 years 9 months
Thanks: 106892 time(s)
Russian Federation


(IMG:http://metalarea.org/images/audiocovers/2021_Jul/acov_tid353703_thumb.jpg)

*Artist: Critical Damage
*Album: Critical Damage
*Year: 2000
*Genre: Thrash Metal
*Country: Italy (IMG:http://metalarea.org/forum/style_images/flags/Italy.png)
*Format: mp3@CBR192kbps
*Size: 50MB

Tracklist:
1. The Words You Want To Hear 04:25
2. Getting Stronger 05:18
3. Power Over 04:09
4. Clear 07:02
5. Liar For Hire 04:46
6. Hollow Swallowed 04:31
7. Critical Damage 03:17
8. The End Of The Story 03:12
******************************
Total playing time: 36:40

Technical info
(IMG:http://metalarea.org/images/spectrogram/2021_Jul/1bdf7c7f90513c3d0f457c9e7d7947e3.png)
Input File: 01-The Words You Want To Hear.mp3
Channels : 2
Sample Rate : 44100
Precision : 16-bit
Duration : 00:04:25.65 = 11715253 samples = 19923.9 CDDA sectors
File Size : 6.38M
Bit Rate : 192k
Sample Encoding: MPEG audio (layer I, II or III)
Comments :
Title=The Words You Want To Hear
Artist=Critical Damage (Ita)
Album=Critical Damage
Tracknumber=01
Year=2000
Genre=Thrash Metal



Register


Go to the top of the page
  Insert nick Quick quote
+Quote Post

Reply to this topicStart new topic
1 User(s) are reading this topic (1 Guests and 0 Anonymous Users)
0 Members:

 



- Lo-Fi Version Support form
Copyrights and abuse reports form
Time is now: 28th October 2021 - 22:27:00