Welcome Guest ( Log In | Register )

 
Reply to this topicStart new topic
> Laetitia In Holocaust - I Fall With The Saints [ep] (2021), Black Metal (D6)
post Jul 23 2021, 14:03:02
Post #1

Правь статус, ####!616
**************
Group: Металариец
Posts: 7,188
Releases: 5626
From: 55°35’N 38°08’E
On Forums: 13 years 3 months
Thanks: 102758 time(s)
Unknown


(IMG:https://metalarea.org/images/audiocovers/2021_Jul/acov_tid353707_thumb.jpg)

*Artist: Laetitia In Holocaust
*Album: I Fall With The Saints [ep]
*Year: 2021
*Genre: Black Metal
*Country: Italy (IMG:https://metalarea.org/forum/style_images/flags/Italy.png)
*Format: mp3@CBR320kbps
*Size: 32MB

Tracklist:
1.I Fall with the Saints 04:02
2.Hair as the Salt of Carthago 04:24
3.Crypts of Rain and Confabulation 04:33
******************************
Total playing time: 12:59

(IMG:https://metalarea.org/images/youtube.png)



Technical info
(IMG:https://metalarea.org/images/spectrogram/2021_Jul/c6070fc51add26f73b67763bb4a7f42e.png)
Input File: 01 I Fall with the Saints.mp3
Channels : 2
Sample Rate : 44100
Precision : 16-bit
Duration : 00:04:02.17 = 10679741 samples = 18162.8 CDDA sectors
File Size : 9.90M
Bit Rate : 327k
Sample Encoding: MPEG audio (layer I, II or III)
Comments :
Title=I Fall with the Saints
Artist=Laetitia in Holocaust
Album=I Fall with the Saints
Tracknumber=1
Year=2021
Genre=Black Metal



Register


Go to the top of the page
  Insert nick Quick quote
+Quote Post

Reply to this topicStart new topic
1 User(s) are reading this topic (1 Guests and 0 Anonymous Users)
0 Members:

 



- Lo-Fi Version Support form
Copyrights and abuse reports form
Time is now: 20th October 2021 - 14:35:06